TORRENTS43.COM

Скачать Hataraku Onii-san! / Коты-Работяги! [2018, TV, 6 из 12] WEB-DL 720p Raw+Rus


Hataraku Onii-san! / Коты-Работяги!
Жанр: комедия
Тип: TV-сериал
Продолжительность: 6 из 12 эпизодов по 5 минут
Выпуск: c 05.01.2018
Автор: Уса Ёсики
Режиссер: Такасима Томоя
Производство: Tomovies
Информационные ссылки: AniDB || World Art || MAL
Релиз подготовлен студией Kansai
  • Тип озвучки: Многоголосая, закадровая

Описание:
Сюжет повествует про двух приятелей-студентов — оптимиста Тапио Чаторадзаву и пессимиста Куехико Рощихару, которые вместе учатся и вместе же ищут (и находят) разнообразные подработки. А ещё они котики. Тапио — трёхцветный; Куехико — русский голубой.
Качество: WEB-DLRip | Энкод: HorribleSubs
Язык озвучки: Японский и Русский
Формат: MKV
Видео: x264, 1280x720, ~1 776 kbps, 23.976 fps
Аудио: AAC, 128 kbps, 44.1 kHz, 2 ch
Аудио: AAC, 192 kbps, 48.0 kHz, 2 ch

Список эпизодов:

01. The Courier`s Buddy
02. Convenience Store
03. Apparel Buddies
04. Rental Car Shop Buddies!
05. High-Rise Window Washing Buddies
06. Traffic Surveying Buddies!

Тех. параметры:

General
Unique ID : 45871066292295664519014377821061646642 (0x2282722E0F89AAF4C34DAA86C6C20932)
Complete name : Hataraku Onii-san! [KANSAI]\[KANSAI] Hataraku Onii-san! - 01 [720p].mkv
Format : Matroska
Format version : Version 4 / Version 2
File size : 59.7 MiB
Duration : 4 min 0 s
Overall bit rate : 2 085 kb/s
Encoded date : UTC 2018-01-09 16:24:16
Writing application : mkvmerge v19.0.0 ('Brave Captain') 64-bit
Writing library : libebml v1.3.5 + libmatroska v1.4.8

Video
ID : 1
Format : AVC
Format/Info : Advanced Video Codec
Format profile : High@L4
Format settings : CABAC / 6 Ref Frames
Format settings, CABAC : Yes
Format settings, ReFrames : 6 frames
Codec ID : V_MPEG4/ISO/AVC
Duration : 4 min 0 s
Bit rate : 1 776 kb/s
Width : 1 280 pixels
Height : 720 pixels
Display aspect ratio : 16:9
Frame rate mode : Variable
Frame rate : 29.970 (29970/1000) FPS
Color space : YUV
Chroma subsampling : 4:2:0
Bit depth : 8 bits
Scan type : Progressive
Bits/(Pixel*Frame) : 0.064
Stream size : 50.5 MiB (85%)
Writing library : x264 core 120 r2120 0c7dab9
Encoding settings : cabac=1 / ref=6 / deblock=1:1:1 / analyse=0x3:0x113 / me=umh / subme=8 / psy=1 / psy_rd=0.40:0.00 / mixed_ref=1 / me_range=16 / chroma_me=1 / trellis=1 / 8x8dct=1 / cqm=0 / deadzone=21,11 / fast_pskip=1 / chroma_qp_offset=-2 / threads=4 / sliced_threads=0 / nr=0 / decimate=1 / interlaced=0 / bluray_compat=0 / constrained_intra=0 / bframes=3 / b_pyramid=2 / b_adapt=2 / b_bias=0 / direct=3 / weightb=1 / open_gop=0 / weightp=2 / keyint=250 / keyint_min=25 / scenecut=40 / intra_refresh=0 / rc_lookahead=50 / rc=2pass / mbtree=1 / bitrate=1776 / ratetol=1.0 / qcomp=0.60 / qpmin=0 / qpmax=69 / qpstep=4 / cplxblur=20.0 / qblur=0.5 / vbv_maxrate=3552 / vbv_bufsize=8880 / nal_hrd=none / ip_ratio=1.40 / aq=1:0.60
Default : Yes
Forced : No

Audio #1
ID : 2
Format : AAC
Format/Info : Advanced Audio Codec
Format profile : LC
Codec ID : A_AAC-2
Duration : 4 min 0 s
Bit rate : 192 kb/s
Channel(s) : 2 channels
Channel positions : Front: L R
Sampling rate : 48.0 kHz
Frame rate : 46.875 FPS (1024 SPF)
Compression mode : Lossy
Stream size : 5.42 MiB (9%)
Language : Russian
Default : Yes
Forced : No

Audio #2
ID : 3
Format : AAC
Format/Info : Advanced Audio Codec
Format profile : LC
Codec ID : A_AAC-2
Duration : 4 min 0 s
Bit rate : 128 kb/s
Channel(s) : 2 channels
Channel positions : Front: L R
Sampling rate : 44.1 kHz
Frame rate : 43.066 FPS (1024 SPF)
Compression mode : Lossy
Stream size : 3.66 MiB (6%)
Language : Japanese
Default : No
Forced : No


Детали торрента:
Название:Hataraku Onii-san! / Коты-Работяги! [2018, TV, 6 из 12] WEB-DL 720p Raw+Rus
Дата добавления:13 Фев 2018 23:28:37
Размер:358 MB
Раздают:2
Качают:0
Форум:Онгоинги с озвучкой

создание сайтов All rights reserved © 2015-2018