TORRENTS43.COM

Скачать Overlord II / Повелитель 2 [2018, TV, 7 из 13] WEB-DL 720p Raw+Rus


Overlord II / Повелитель 2
Жанр: приключения, фэнтези
Тип: TV-сериал
Продолжительность: 7 из 13 эпизодов по 25 минут
Выпуск: c 09.01.2018
Автор: Маруяма Куганэ
Режиссер: Ито Наоюки
Производство: Madhouse Studios
Информационные ссылки: AniDB || World Art || MAL || ANN
Релиз подготовлен студией Студийная Банда
  • Тип озвучки: Дублированный, профессиональный

Описание:
Редко удаётся найти отличную онлайн-игру, в которой тебя устраивало бы абсолютно всё. Но пользователям "Иггдрасиль” несказанно повезло. Правда счастье их длилось недолго, ведь разработчики надумали закрыть эту игру. Лидер одной из самых могущественных гильдий по имени Момонга не хотел, чтобы игру закрывали и решил сидеть там до самого конца. Его желание отчасти сбылось, в час прощания с онлайн-миром Момонгу перенесло в реальный мир "Иггдрасиль”. Играй, сколько влезет. И Момонга бросился изучать, чем же этот мир отличается от онлайн-игры.
Однажды, во время очередной миссии, одной из верных NPC Момонги по имени Шалтия промыли мозги, и она решила убить своего бывшего хозяина. Битва с ней далась ему крайне нелегко, но в итоге он сумел перехитрить Шалтию и уничтожить её. В своём замке он возрождает девушку обратно в NPC, и она вновь обретает ясность ума. Теперь нужно выяснить, что за злой умысел стоял за её действиями, и кто дёргал за ниточки марионетки, пытаясь устранить могущественного соперника?
Качество: WEB-DLRip | Энкод: HorribleSubs
Язык озвучки: Японский и Русский
Формат: MKV
Видео: x264, 1280x720, ~1 776 kbps, 23.976 fps
Аудио: AAC, 128 kbps, 44.1 kHz, 2 ch
Аудио: AAC, 192 kbps, 48.0 kHz, 2 ch

Список эпизодов:

01. The Dawn of Despair
02. Departure
03. Lizard Men, Gathering
04. Army of Death
05. The Freezing God
06. Those Who Pick Up, Those Who Are Picked Up
07. Blue Roses

Тех. параметры:

General
Unique ID : 69945279054959815529052062502923724369 (0x349EF8826B721DEC6B61AD4B84E6E651)
Complete name : Overlord II [StudioBand]\[StudioBand] Overlord II - 01 [720p].mkv
Format : Matroska
Format version : Version 4 / Version 2
File size : 353 MiB
Duration : 23 min 39 s
Overall bit rate : 2 087 kb/s
Encoded date : UTC 2018-01-09 18:45:28
Writing application : mkvmerge v19.0.0 ('Brave Captain') 64-bit
Writing library : libebml v1.3.5 + libmatroska v1.4.8

Video
ID : 1
Format : AVC
Format/Info : Advanced Video Codec
Format profile : High@L4
Format settings : CABAC / 6 Ref Frames
Format settings, CABAC : Yes
Format settings, ReFrames : 6 frames
Codec ID : V_MPEG4/ISO/AVC
Duration : 23 min 39 s
Bit rate : 1 776 kb/s
Width : 1 280 pixels
Height : 720 pixels
Display aspect ratio : 16:9
Frame rate mode : Variable
Frame rate : 23.976 (23976/1000) FPS
Color space : YUV
Chroma subsampling : 4:2:0
Bit depth : 8 bits
Scan type : Progressive
Bits/(Pixel*Frame) : 0.080
Stream size : 299 MiB (85%)
Writing library : x264 core 120 r2120 0c7dab9
Encoding settings : cabac=1 / ref=6 / deblock=1:1:1 / analyse=0x3:0x113 / me=umh / subme=8 / psy=1 / psy_rd=0.40:0.00 / mixed_ref=1 / me_range=16 / chroma_me=1 / trellis=1 / 8x8dct=1 / cqm=0 / deadzone=21,11 / fast_pskip=1 / chroma_qp_offset=-2 / threads=4 / sliced_threads=0 / nr=0 / decimate=1 / interlaced=0 / bluray_compat=0 / constrained_intra=0 / bframes=3 / b_pyramid=2 / b_adapt=2 / b_bias=0 / direct=3 / weightb=1 / open_gop=0 / weightp=2 / keyint=250 / keyint_min=23 / scenecut=40 / intra_refresh=0 / rc_lookahead=50 / rc=2pass / mbtree=1 / bitrate=1776 / ratetol=1.0 / qcomp=0.60 / qpmin=0 / qpmax=69 / qpstep=4 / cplxblur=20.0 / qblur=0.5 / vbv_maxrate=3552 / vbv_bufsize=8880 / nal_hrd=none / ip_ratio=1.40 / aq=1:0.60
Default : Yes
Forced : No

Audio #1
ID : 2
Format : AAC
Format/Info : Advanced Audio Codec
Format profile : LC
Codec ID : A_AAC-2
Duration : 23 min 39 s
Bit rate : 192 kb/s
Channel(s) : 2 channels
Channel positions : Front: L R
Sampling rate : 48.0 kHz
Frame rate : 46.875 FPS (1024 SPF)
Compression mode : Lossy
Stream size : 32.1 MiB (9%)
Language : Russian
Default : Yes
Forced : No

Audio #2
ID : 3
Format : AAC
Format/Info : Advanced Audio Codec
Format profile : LC
Codec ID : A_AAC-2
Duration : 23 min 39 s
Bit rate : 128 kb/s
Channel(s) : 2 channels
Channel positions : Front: L R
Sampling rate : 44.1 kHz
Frame rate : 43.066 FPS (1024 SPF)
Compression mode : Lossy
Stream size : 21.7 MiB (6%)
Language : Japanese
Default : No
Forced : No


Детали торрента:
Название:Overlord II / Повелитель 2 [2018, TV, 7 из 13] WEB-DL 720p Raw+Rus
Дата добавления:21 Фев 2018 01:04:15
Размер:2,42 GB
Раздают:22
Качают:6
Форум:Онгоинги с озвучкой

создание сайтов All rights reserved © 2015-2018