TORRENTS43.COM

Скачать Overlord II | Повелитель [ТВ-2] [2018, TV, 6 из 13] WEB-DL 1080p raw+rus




オーバーロード II | Overlord II | Повелитель [ТВ-2]
Тип: TV
Жанр:приключения, фэнтези
Продолжительность: 13 эпизодов по 25 минут
Количество серий: 6 из 13
Дата выпуска: c 09.01.2018
Производство: студия Madhouse Studios
Автор оригинала: Маруяма Куганэ
Режиссер: Ито Наоюки

Ссылки: World-Art, ANN, AniDB, MyAnimeList, Сетка вещания
Описание:
2138 год. Некогда популярная виртуальная онлайн-игра «Иггдрасиль» прекратила работу. Один из игроков, Момонга, ждал рокового часа, сидя в одиночестве в великой гробнице Назарик, ещё недавно гордости и славе его гильдии. Но почему-то его не отключило от игры. NPC вдруг обрели собственный разум, а вокруг Назарика раскинулся незнакомый мир. Момонга решил взять себе имя родной гильдии — Айнз Ул Гоун — и прославить его, чтобы отыскать старых друзей. Вместе с верными союзниками он готовится напасть на новые земли. Владыка смерти и властелин мира возвращается!

Язык озвучки: Русский дублированный (Wakanim.tv)
Субтитры: Отсутствуют

Качество видео: WEB-DL
Видео: AVC (High@L4.1), 1920x1080 (16:9), ~23.976 fps, ~10 Mb/s
Аудио 1: AAC, 48.0 KHz, 198 kbps, 2 ch (Русский, Wakanim.tv) Сэмпл
Аудио 2: AAC, 48.0 KHz, 198 kbps, 2 ch (Японский, Madhouse Studios)

Скриншоты:



Дополнительные Скриншоты:

Эпизоды:

01. Приходит отчаяние
02. Отбытие
03. Ящеры собираются
04. Армия смерти
05. Бог мороза
06. Подобравший и подобранная
07. ...
08. ...
09. ...
10. ...
11. ...
12. ...

Команда актеров дубляжа и переводчиков русской версии:

у Wakanim.tv на подряде на Оверлорда - студия дубляжа Back Board Cinema / перевод - Истари Комикс.
Момонга - Давид Петросян
Альбедо, Хамске, Лигрид - Татьяна Борзова
Бангай, Аура - Полина Ртищева
Кайчо, Пики, Зарюс - Влад Дуров
Набэ - Анна Мосолова
Король, Эклер - Сергей Кубясян
Коцит, Газеф, Цуа - Александр Русаков
Лана, Шалтир, Марэ - Ирина Зиновкина
Автор синхронного текста - Вячеслав Иванов
Режиссер перезаписи - Дмитрий Поликарпов
Режиссер дубляжа - Вячеслав Иванов
Звукорежиссер - Александр Русаков
Продюсер - Максим Антонян
Переводчик - Алексей Соловьев
Редактор - Алла Локтионова
Руководитель перевода - Юлия Парамонова

Дополнительная информация:

Ну собственно одно из моих любимых аниме 2015 года, поэтому будет и веб-дл с Wakanim.tv и потом БД)
Незабываем подписываться на сервис wakanim'a и поддерживать издателя!)

Mediainfo:


General
Complete name : F:\Downloads4\OVERLORD [TV-2] [2018] [WEB-DL] [1080p] [RUS + JAP]\OVERLORD II 01 (WEB-DL 1920x1080 x264 AAC Rus + Jap).mkv
Format : Matroska
Format version : Version 4 / Version 2
File size : 1.77 GiB
Duration : 23 min 39 s
Overall bit rate : 10.7 Mb/s
Encoded date : UTC 2018-01-09 18:54:07
Writing application : mkvmerge v18.0.0 ('Apricity') 64-bit
Writing library : libebml v1.3.5 + libmatroska v1.4.8

Video
ID : 1
Format : AVC
Format/Info : Advanced Video Codec
Format profile : High@L4.1
Format settings : CABAC / 4 Ref Frames
Format settings, CABAC : Yes
Format settings, RefFrames : 4 frames
Codec ID : V_MPEG4/ISO/AVC
Duration : 23 min 39 s
Bit rate : 10.3 Mb/s
Width : 1 920 pixels
Height : 1 080 pixels
Display aspect ratio : 16:9
Frame rate mode : Constant
Frame rate : 23.976 (24000/1001) FPS
Color space : YUV
Chroma subsampling : 4:2:0
Bit depth : 8 bits
Scan type : Progressive
Bits/(Pixel*Frame) : 0.207
Stream size : 1.70 GiB (96%)
Writing library : x264 core 152 r2851 ba24899
Encoding settings : cabac=1 / ref=4 / deblock=1:1:1 / analyse=0x3:0x133 / me=umh / subme=10 / psy=1 / psy_rd=0.40:0.00 / mixed_ref=1 / me_range=24 / chroma_me=1 / trellis=2 / 8x8dct=1 / cqm=0 / deadzone=21,11 / fast_pskip=1 / chroma_qp_offset=-2 / threads=12 / lookahead_threads=3 / sliced_threads=0 / nr=0 / decimate=1 / interlaced=0 / bluray_compat=0 / constrained_intra=0 / bframes=10 / b_pyramid=2 / b_adapt=2 / b_bias=0 / direct=3 / weightb=1 / open_gop=0 / weightp=2 / keyint=250 / keyint_min=23 / scenecut=40 / intra_refresh=0 / rc_lookahead=60 / rc=crf / mbtree=1 / crf=12.0 / qcomp=0.60 / qpmin=0 / qpmax=69 / qpstep=4 / ip_ratio=1.40 / aq=1:0.60
Language : Russian
Default : Yes
Forced : No

Audio #1
ID : 2
Format : AAC
Format/Info : Advanced Audio Codec
Format profile : LC
Codec ID : A_AAC-2
Duration : 23 min 39 s
Bit rate : 198 kb/s
Channel(s) : 2 channels
Channel positions : Front: L R
Sampling rate : 48.0 kHz
Frame rate : 46.875 FPS (1024 SPF)
Compression mode : Lossy
Delay relative to video : -21 ms
Stream size : 33.5 MiB (2%)
Language : Russian
Default : Yes
Forced : Yes

Audio #2
ID : 3
Format : AAC
Format/Info : Advanced Audio Codec
Format profile : LC
Codec ID : A_AAC-2
Duration : 23 min 39 s
Bit rate : 196 kb/s
Channel(s) : 2 channels
Channel positions : Front: L R
Sampling rate : 48.0 kHz
Frame rate : 46.875 FPS (1024 SPF)
Compression mode : Lossy
Delay relative to video : -21 ms
Stream size : 33.2 MiB (2%)
Language : Japanese
Default : No
Forced : No

Смотреть Online

http://moonwalk.cc/video/72f2c742a2a8a795232841c20ed4cfe1/iframe
Детали торрента:
Название:Overlord II | Повелитель [ТВ-2] [2018, TV, 6 из 13] WEB-DL 1080p raw+rus
Дата добавления:13 Фев 2018 22:19:43
Размер:10,4 GB
Раздают:22
Качают:4
Форум:Онгоинги с озвучкой

создание сайтов All rights reserved © 2015-2018