TORRENTS43.COM

Скачать Охота на воров / Den of Thieves (2018) ТS [MVO] [AD]


Охота на воров / Den of Thieves (2018) ТS
Производство: США / Diamond Film Productions, G-BASE, Tucker Tooley Entertainment
Жанр: Боевик, триллер, драма, криминал, детектив

Режиссер: Кристиан Гьюдгэст
Актеры: Джерард Батлер, Джордан Бриджес, Пабло Шрайбер, Ивэн Джонс, О Ши Джексон мл., 50 Cent, Соня Балморес, Эрик Браден, Брайан Ван Холт, Морис Комт

Описание:
Большой Ник - начальник элитного подразделения полиции Лос-Анджелеса - ежедневно доказывает, что его команда более крутая, чем те, на кого они охотятся. Когда коп узнает, что легендарный и неуловимый вор планирует дерзкое ограбление Федерального резервного банка США, то он решает помешать этому любым способом. И играть по правилам он не привык.


Возраст: 18+ (зрителям, достигшим 18 лет. запрещено для детей)
Рейтинг MPAA: R (лицам до 17 лет обязательно присутствие взрослого)
Дата мировой премьеры: 18 января 2018
Дата премьеры в России: 8 февраля 2018


Продолжительность: 02:12:23
Качество видео: TS
Перевод: Любительский многоголосый (КОЛОБОК)
Субтитры: Отсутствуют
Реклама: Присутствуют вставки текстовой рекламы!

Видео: MPEG4, XviD, 720x272 (2.647), 23.976 fps, 1 247 Kbps (0.266 bit/pixel)
Аудио: AC-3, 48.0 KHz, 2 ch, 192 Kbps, CBR

MediaInfo:


Общее
Полное имя : E:\NNM\Охота на воров\Den Thieves 2018 TS.avi
Формат : AVI
Формат/Информация : Audio Video Interleave
Профиль формата : OpenDML
Размер файла : 1,34 Гбайт
Продолжительность : 2 ч. 12 м.
Общий поток : 1451 Кбит/сек

Видео
Идентификатор : 0
Формат : MPEG-4 Visual
Профиль формата : Advanced Simple@L5
Настройки формата : BVOP2
Параметр BVOP формата : 2
Параметр QPel формата : Нет
Параметр GMC формата : Без точки перехода
Параметр матрицы формата : Default (MPEG)
Идентификатор кодека : XVID
Идентификатор кодека/Подсказка : XviD
Продолжительность : 2 ч. 12 м.
Битрейт : 1247 Кбит/сек
Ширина : 720 пикселей
Высота : 272 пикселя
Соотношение сторон : 2,647
Частота кадров : 23,976 (24000/1001) кадра/сек
Цветовое пространство : YUV
Субдискретизация насыщенности : 4:2:0
Битовая глубина : 8 бит
Тип развёртки : Прогрессивная
Метод сжатия : С потерями
Бит/(Пиксели*Кадры) : 0.266
Размер потока : 1,15 Гбайт (86%)
Библиотека кодирования : XviD 1.2.1 (UTC 2008-12-04)

Аудио
Идентификатор : 1
Формат : AC-3
Формат/Информация : Audio Coding 3
Идентификатор кодека : 2000
Продолжительность : 2 ч. 12 м.
Вид битрейта : Постоянный
Битрейт : 192 Кбит/сек
Каналы : 2 канала
Расположение каналов : Front: L R
Частота : 48,0 КГц
Частота кадров : 31,250 кадров/сек (1536 SPF)
Битовая глубина : 16 бит
Метод сжатия : С потерями
Размер потока : 182 Мбайт (13%)
Выравнивание : Соединение по промежуткам
Продолжительность промежутка : 32 мс. (0,77 видеокадр)
ServiceKind/String : Complete Main
Скриншоты:


Все одноименные релизы в Клубе
Детали торрента:
Название:Охота на воров / Den of Thieves (2018) ТS [MVO] [AD]
Дата добавления:22 Янв 2018 16:25:04
Размер:1,34 GB
Раздают:11
Качают:0
Форум:Архив неактуальных Экранок и видео с Рекламой

All rights reserved © 2015-2018