TORRENTS43.COM

Скачать Гастролёры (2014) WEBRip


Гастролёры (2014) WEBRip
Производство: Россия
Жанр: Комедия

Режиссер: Сергей Никонов, Евгений Жамцуев
Актеры: Сергей Никонов, Евгений Жамцуев, Виктор Нелюбин, Михаил Козлов, Константин Уладаев, Валерий Скосырский, Екатерина Турова, Кирилл Горбунов

Описание:
Два друга сбегают из детского дома и чтобы выжить ездят по разным городам и занимаются мелким мошенничеством. Сестра одного из парней при этом все еще находится в приюте, он часто думает о ней и даже трогательно хранит под подушкой ее рисунок. Остальные персонажи фильма «Гастролеры» не менее колоритные, чем два главных героя-афериста — это полицейский по фамилии Нелюбин и бандит по кличке Лепень. И вот однажды один из бывших детдомовцев решает завязать с криминалом…



Релиз от: Алехаndr
Продолжительность: 01:10:10
Качество видео: WEBRip
Субтитры: Отсутствуют

Видео: Xvid, 720x304 (2.35:1), ~1130 Kbps
Аудио: AC3, 2 ch, 192 Kbps

Mediainfo:


Общее
Полное имя : D:\Гастролеры (2014).by.Алехаndr.avi
Формат : AVI
Формат/Информация : Audio Video Interleave
Размер файла : 670 Мбайт
Продолжительность : 1 ч. 10 м.
Общий поток : 1335 Кбит/сек
Программа кодирования : Lavf54.63.104

Видео
Идентификатор : 0
Формат : xvid
Идентификатор кодека : xvid
Продолжительность : 1 ч. 10 м.
Битрейт : 1132 Кбит/сек
Ширина : 720 пикселей
Высота : 304 пикселя
Соотношение сторон : 2,35:1
Частота кадров : 25,000 кадров/сек
Тип развёртки : Прогрессивная
Бит/(Пиксели*Кадры) : 0.207
Размер потока : 568 Мбайт (85%)

Аудио
Идентификатор : 1
Формат : AC-3
Формат/Информация : Audio Coding 3
Идентификатор кодека : 2000
Продолжительность : 1 ч. 10 м.
Вид битрейта : Постоянный
Битрейт : 192 Кбит/сек
Каналы : 2 канала
Расположение каналов : Front: L R
Частота : 48,0 КГц
Частота кадров : 31,250 кадров/сек (1536 SPF)
Битовая глубина : 16 бит
Метод сжатия : С потерями
Размер потока : 96,4 Мбайт (14%)
Выравнивание : Соединение по промежуткам
Продолжительность промежутка : 32 мс. (0,80 видеокадр)
ServiceKind/String : Complete Main
Скриншоты:


Все одноименные релизы в Клубе
Детали торрента:
Название:Гастролёры (2014) WEBRip
Дата добавления:23 Янв 2018 18:36:58
Размер:670 MB
Раздают:1
Качают:1
Форум:Отечественные Фильмы (HD*Rip/LQ, DVDRip, SATRip, VHSRip)

All rights reserved © 2015-2018