TORRENTS43.COM

Скачать Без крыши, вне закона / Sans toit ni loi (1985) HDRip


Без крыши, вне закона / Sans toit ni loi (1985) HDRip
Производство: Франция / Ciné Tamaris, Films A2, Ministère de la Culture
Жанр: Драма, Мелодрама

Режиссер: Аньес Варда
Актеры: Сандрин Боннэр, Сетти Рамдан, Френсис Балшер, Жан-Луи Перлетти, Урбен Коссе, Кристоф Алказар, Доминик Дюран, Жоэль Фосс, Патрик Шмит

Описание:
Батрак с фермы находит в канаве труп замерзшей женщины со спутанными волосами, в изношенной кожаной куртке и грязных джинсах. Это была Мона, яростно независимая бродяжка, чьи последние недели воссоздаются при помощи ретроспекции и в опросах людей, знакомых или встречавших Мону. Вскоре становится ясно, что никто толком ее не знал….


Возраст: 18+ (зрителям, достигшим 18 лет. запрещено для детей)
Рейтинг MPAA: R (лицам до 17 лет обязательно присутствие взрослого)

Продолжительность: 01:46:10
Качество видео: HDRip
Перевод: Двуголосый закадровый (НТВ)
Субтитры: отсутствуют

Видео: Xvid, 720x432, ~1754 Kbps
Аудио: AC3, 1 ch, 192 Kbps

Mediainfo:


General
Complete name : /media/win/TORRENT/UPLOAD TORRENTS/Vagabond.1985.HDRip.avi
Format : AVI
Format/Info : Audio Video Interleave
File size : 1.45 GiB
Duration : 1 h 46 min
Overall bit rate : 1 955 kb/s
Writing application : VirtualDubMod 1.5.10.2 (build 2540/release)
Writing library : VirtualDubMod build 2540/release

Video
ID : 0
Format : MPEG-4 Visual
Format profile : Advanced Simple@L5
Format settings : BVOP1 / Custom Matrix
Format settings, BVOP : 1
Format settings, QPel : No
Format settings, GMC : No warppoints
Format settings, Matrix : Custom
Codec ID : XVID
Codec ID/Hint : XviD
Duration : 1 h 46 min
Bit rate : 1 754 kb/s
Width : 720 pixels
Height : 432 pixels
Display aspect ratio : 5:3
Frame rate : 23.976 (24000/1001) FPS
Color space : YUV
Chroma subsampling : 4:2:0
Bit depth : 8 bits
Scan type : Progressive
Compression mode : Lossy
Bits/(Pixel*Frame) : 0.235
Stream size : 1.30 GiB (90%)
Writing library : XviD 65

Audio
ID : 1
Format : AC-3
Format/Info : Audio Coding 3
Codec ID : 2000
Duration : 1 h 46 min
Bit rate mode : Constant
Bit rate : 192 kb/s
Channel(s) : 1 channel
Channel positions : Front: C
Sampling rate : 48.0 kHz
Frame rate : 31.250 FPS (1536 SPF)
Bit depth : 16 bits
Compression mode : Lossy
Stream size : 146 MiB (10%)
Alignment : Split accross interleaves
Interleave, duration : 42 ms (1.00 video frame)
Interleave, preload duration : 500 ms
Service kind : Complete Main

Дополнительная информация:

приз Французского синдиката критиков за фильм (поровну с «Грозой над домом» / Péril en la demeure)

Сезар, 1986 год
Победитель (1):
Лучшая актриса ( Сандрин Боннэр )
Номинации (3):
Лучший фильм
Лучшая актриса второго плана (Маша Мериль)
Лучший режиссер (Аньес Варда)

Венецианский кинофестиваль, 1985 год
Победитель (3):
Золотой лев
Приз международной ассоциации кинокритиков (ФИПРЕССИ)
Премия Международной Католической организации в области кино (OCIC)
Скриншоты:


Все одноименные релизы в Клубе
Детали торрента:
Название:Без крыши, вне закона / Sans toit ni loi (1985) HDRip
Дата добавления:23 Янв 2018 19:37:41
Размер:1,45 GB
Раздают:2
Качают:0
Форум:Авторское кино

All rights reserved © 2015-2018