TORRENTS43.COM

Скачать Darling in the Franxx / Возлюбленный во «ФранКс» [2018, TV, 9 из 24] WEB-DL 720p Raw+Rus


Darling in the Franxx / Возлюбленный во «ФранКс»
Жанр: приключения, фантастика, меха
Тип: TV-сериал
Продолжительность: 9 из 24 эпизодов по 25 минут
Выпуск: c 13.01.2018
Сценарий: Нисигори Ацуси
Режиссер: Нисигори Ацуси
Производство: Trigger, A-1 Pictures Inc.
Информационные ссылки: AniDB || World Art || MAL || ANN
Релиз подготовлен студией Kansai
  • Тип озвучки: Многоголосая, закадровая

Описание:
Что случится с нами в далёком будущем? Будем ли мы жить, как сейчас, или наш мир изменится до неузнаваемости? Один из вариантов развития событий покажет нам это аниме. Под стеклянным куполом, ограждающим небо, дрейфует город-крепость под названием "Плантация”. Там воспитываются юные пилоты роботов Франкс. Причём воспитываются таким образом, что им внушается, будто пилотировать Франкс - это их единственный смысл жизни и предназначение. У этих детей нет детства в привычном нам понимании, только бои и подготовка ко встрече с врагом.

Но не каждого из этих детей могут допустить пилотировать Франкс. Так случилось с номером 016, его называют "бывшим вундеркиндом”, а в миру он Хиро. Его списали из пилотов, и теперь ему необязательно жить, ведь главную миссию своей жизни он больше выполнить не в состоянии. Но однажды он понимает, что его жизнь не оборвалась в тот момент, когда он услышал, что больше не может пилотировать Франкс. Хиро встретил таинственную девушку по имени Ноль-Два, которая произнесла странную фразу: "Я нашла тебя, любимый”.
Качество: WEB-DLRip | Энкод: HorribleSubs
Язык озвучки: Японский и Русский
Формат: MKV
Видео: x264, 1280x720, ~1 776 kbps, 23.976 fps
Аудио: AAC, 128 kbps, 44.1 kHz, 2 ch
Аудио: AAC, 192 kbps, 48.0 kHz, 2 ch

Список эпизодов:

01. Alone and Lonesome
02. What It Means to Connect
03. Fighting Puppet
04. Flap Flap
05. Your Thorn, My Badge
06. Darling in the Franxx
07. Shooting Star Moratorium
08. Boys x Girls
09. Triangle Bomb

Тех. параметры:

General
Unique ID : 239347460366343903763971153283228509009 (0xB410A4E3F37BDD2FCE960A0B99B62351)
Complete name : Darling in the FranXX [KANSAI]\[KANSAI] Darling in the FranXX - 01 [720p].mkv
Format : Matroska
Format version : Version 4 / Version 2
File size : 359 MiB
Duration : 24 min 0 s
Overall bit rate : 2 090 kb/s
Encoded date : UTC 2018-01-23 19:06:23
Writing application : mkvmerge v20.0.0 ('I Am The Sun') 64-bit
Writing library : libebml v1.3.5 + libmatroska v1.4.8

Video
ID : 1
Format : AVC
Format/Info : Advanced Video Codec
Format profile : High@L4
Format settings : CABAC / 6 Ref Frames
Format settings, CABAC : Yes
Format settings, ReFrames : 6 frames
Codec ID : V_MPEG4/ISO/AVC
Duration : 24 min 0 s
Bit rate : 1 776 kb/s
Width : 1 280 pixels
Height : 720 pixels
Display aspect ratio : 16:9
Frame rate mode : Variable
Frame rate : 23.976 (23976/1000) FPS
Color space : YUV
Chroma subsampling : 4:2:0
Bit depth : 8 bits
Scan type : Progressive
Bits/(Pixel*Frame) : 0.080
Stream size : 304 MiB (85%)
Writing library : x264 core 120 r2120 0c7dab9
Encoding settings : cabac=1 / ref=6 / deblock=1:1:1 / analyse=0x3:0x113 / me=umh / subme=8 / psy=1 / psy_rd=0.40:0.00 / mixed_ref=1 / me_range=16 / chroma_me=1 / trellis=1 / 8x8dct=1 / cqm=0 / deadzone=21,11 / fast_pskip=1 / chroma_qp_offset=-2 / threads=4 / sliced_threads=0 / nr=0 / decimate=1 / interlaced=0 / bluray_compat=0 / constrained_intra=0 / bframes=3 / b_pyramid=2 / b_adapt=2 / b_bias=0 / direct=3 / weightb=1 / open_gop=0 / weightp=2 / keyint=250 / keyint_min=23 / scenecut=40 / intra_refresh=0 / rc_lookahead=50 / rc=2pass / mbtree=1 / bitrate=1776 / ratetol=1.0 / qcomp=0.60 / qpmin=0 / qpmax=69 / qpstep=4 / cplxblur=20.0 / qblur=0.5 / vbv_maxrate=3552 / vbv_bufsize=8880 / nal_hrd=none / ip_ratio=1.40 / aq=1:0.60
Default : Yes
Forced : No

Audio #1
ID : 2
Format : AAC
Format/Info : Advanced Audio Codec
Format profile : LC
Codec ID : A_AAC-2
Duration : 24 min 0 s
Bit rate : 192 kb/s
Channel(s) : 2 channels
Channel positions : Front: L R
Sampling rate : 48.0 kHz
Frame rate : 46.875 FPS (1024 SPF)
Compression mode : Lossy
Stream size : 32.5 MiB (9%)
Language : Russian
Default : Yes
Forced : No

Audio #2
ID : 3
Format : AAC
Format/Info : Advanced Audio Codec
Format profile : LC
Codec ID : A_AAC-2
Duration : 24 min 0 s
Bit rate : 128 kb/s
Channel(s) : 2 channels
Channel positions : Front: L R
Sampling rate : 44.1 kHz
Frame rate : 43.066 FPS (1024 SPF)
Compression mode : Lossy
Stream size : 22.0 MiB (6%)
Language : Japanese
Default : No
Forced : No


Детали торрента:
Название:Darling in the Franxx / Возлюбленный во «ФранКс» [2018, TV, 9 из 24] WEB-DL 720p Raw+Rus
Дата добавления:18 Мар 2018 15:17:59
Размер:3,16 GB
Раздают:7
Качают:0
Форум:Онгоинги с озвучкой

All rights reserved © 2015-2018