TORRENTS43.COM

Скачать Azure Striker Gunvolt | Armed Blue: Gunvolt | Лазурный воин Ганвольт [2017, ONA, 1 ep.] BDrip 1080p raw


Azure Striker Gunvolt | Armed Blue: Gunvolt | Лазурный воин Ганвольт | 蒼き雷霆 ガンヴォルト
Жанр: приключения
Тип: Web
Продолжительность: 1 эп. по 25 мин.
Количество серий: 1 из 1
Выпуск: 09.02.2017
Производство: студия LandQ Studios / ランドック・スタジオ
Режиссер: Одака Ёсинори
Ссылки: World-Art, ANN, AniDB, MyAnimeList
Описание:
В ближайшем будущем появились люди со спецспособностями, называемые Семёрки. Япония благополучно живёт под контролем корпорации Сумераги, которая втайне занимается поиском и отловом Семёрок, для проведения над ними различных экспериментов. Злобной корпорации противостоит небольшая группа, называющаяся Перья. К этой группе и примыкает главный герой овашки Ганвольт.
Качество видео: BDrip
Видео: AVC (High@L4), 1920x1080 (16:9), ~23.976 fps, ~9205 kbps
Аудио: FLAC, 2 ch, 48 kHz, 24 bit, ~1651 kbps | Звук: Японский
Язык озвучки: Японский
Субтитры: Русские
Перевод: extvol
Скриншоты:


Media Info на первую серию


General
Unique ID : 1891498347233719198170021481424777720 (0x16C4A119323D3C90A290AB7303A71F8)
Complete name : Armed Blue ~Gunvolt~ (BDRip 1920x1080 x264 FLAC)\[ReinForce] Armed Blue ~Gunvolt~ (BDRip 1920x1080 x264 FLAC).mkv
Format : Matroska
Format version : Version 4 / Version 2
File size : 1.65 GiB
Duration : 21 min 45 s
Overall bit rate mode : Variable
Overall bit rate : 10.9 Mb/s
Encoded date : UTC 2017-10-13 22:39:07
Writing application : mkvmerge v9.6.0 ('Slave To Your Mind') 64bit
Writing library : libebml v1.3.4 + libmatroska v1.4.8

Video
ID : 1
Format : AVC
Format/Info : Advanced Video Codec
Format profile : High@L4
Format settings : CABAC / 4 Ref Frames
Format settings, CABAC : Yes
Format settings, ReFrames : 4 frames
Codec ID : V_MPEG4/ISO/AVC
Duration : 21 min 45 s
Bit rate : 9 205 kb/s
Width : 1 920 pixels
Height : 1 080 pixels
Display aspect ratio : 16:9
Frame rate mode : Constant
Frame rate : 23.976 (24000/1001) FPS
Color space : YUV
Chroma subsampling : 4:2:0
Bit depth : 8 bits
Scan type : Progressive
Bits/(Pixel*Frame) : 0.185
Stream size : 1.40 GiB (85%)
Writing library : x264 core 152
Encoding settings : opencl=1 / cabac=1 / ref=4 / deblock=1:-2:-2 / analyse=0x3:0x113 / me=umh / subme=9 / psy=1 / psy_rd=0.70:0.00 / mixed_ref=0 / me_range=32 / chroma_me=1 / trellis=2 / 8x8dct=1 / cqm=0 / deadzone=21,11 / fast_pskip=1 / chroma_qp_offset=-2 / threads=8 / lookahead_threads=1 / sliced_threads=0 / nr=0 / decimate=1 / interlaced=0 / bluray_compat=0 / constrained_intra=0 / bframes=9 / b_pyramid=2 / b_adapt=2 / b_bias=0 / direct=3 / weightb=1 / open_gop=0 / weightp=2 / keyint=250 / keyint_min=23 / scenecut=40 / intra_refresh=0 / rc_lookahead=40 / rc=crf / mbtree=1 / crf=16.0 / qcomp=0.70 / qpmin=10 / qpmax=20 / qpstep=4 / ip_ratio=1.40 / aq=1:1.00
Default : Yes
Forced : No

Audio
ID : 2
Format : FLAC
Format/Info : Free Lossless Audio Codec
Codec ID : A_FLAC
Duration : 21 min 45 s
Bit rate mode : Variable
Bit rate : 1 651 kb/s
Channel(s) : 2 channels
Channel positions : Front: L R
Sampling rate : 48.0 kHz
Frame rate : 10.417 FPS (4608 SPF)
Bit depth : 24 bits
Stream size : 257 MiB (15%)
Writing library : Lavf57.71.100
Language : Japanese
Default : Yes
Forced : No
Детали торрента:
Название:Azure Striker Gunvolt | Armed Blue: Gunvolt | Лазурный воин Ганвольт [2017, ONA, 1 ep.] BDrip 1080p raw
Дата добавления:28 Янв 2018 21:03:46
Размер:2,74 GB
Раздают:1
Качают:0
Форум:Аниме (FullHD)

All rights reserved © 2015-2018