TORRENTS43.COM

Скачать Dagashi Kashi 2 / Магазинчик сладостей [ТВ-2] [2018, TV, 12 ep] WEB-DL 720p Raw+Rus


Dagashi Kashi 2 / Магазинчик сладостей [ТВ-2]
Жанр: комедия, повседневность
Тип: TV-сериал
Продолжительность: 12 эпизодов по 12 минут
Выпуск: c 12.01.2018 по 30.03.2018
Автор: Котояма
Снято по манге: Dagashi Kashi
Режиссер: Кувахара Сатоси
Производство: Tezuka Productions
Информационные ссылки: AniDB || World Art || MAL || ANN
Релиз подготовлен студией Kansai
  • Тип озвучки: Многоголосая, закадровая

Описание:
Коконоцу Шикада живёт в провинциальном городке, а его отец Йо владеет семейным бизнесом, магазинчиком, продающим японские сладости. Магазинчик этот передаётся из поколения в поколение, и Йо является уже восьмым наследником этого бизнеса. Однажды о магазинчике сладостей узнаёт знаменитая компания, производящая вкусности. И владелец этой компании отправляет свою дочь Хотару на переговоры с Йо, с целью завербовать его в свой бизнес. Йо соглашается, но он не хочет закрывать свой магазин, а значит Коконоцу должен вступить в наследство. Чтобы заполучить талантливого кондитера себе, Хотару решает во что бы то ни стало уговорить Коконоцу стать девятым владельцем магазинчика сладостей.
Качество: WEB-DLRip | Энкод: HorribleSubs
Язык озвучки: Японский и Русский
Формат: MKV
Видео: x264, 1280x720, ~1 776 kbps, 23.976 fps
Аудио: AAC, 128 kbps, 44.1 kHz, 2 ch
Аудио: AAC, 192 kbps, 48.0 kHz, 2 ch

Список эпизодов:

01. Big Katsu, Peperoncino, And...
02. Baseball Board Game Gum, Pop Pop Boat, And...
03. Beigoma, Reminiscence, And...
04. Homerun Bar, Fireworks Festival, And...
05. Ambulance, Get a Move On, You Cod!, And...
06. Convenience Store, Job Magazine, And...
07. Hajime Owari, Chocoball, And...
08. Roll Candy, High Eight Chocolate, And...
09. Internets, Super Ball, And...
10. Monjiro Squid, Manga Manuscript, And...
11. Homerun Bar Winning Stick, Snow, And...
12. I`m Back, Welcome Back, And...

Тех. параметры:

General
Unique ID : 38716924508732447497723932813260865578 (0x1D209BC1D866A2D1339472824E2DC02A)
Complete name : Dagashi Kashi S2 [KANSAI]\[KANSAI] Dagashi Kashi S2 - 01 [720p].mkv
Format : Matroska
Format version : Version 4 / Version 2
File size : 184 MiB
Duration : 12 min 15 s
Overall bit rate : 2 096 kb/s
Encoded date : UTC 2018-01-28 23:23:48
Writing application : mkvmerge v20.0.0 ('I Am The Sun') 64-bit
Writing library : libebml v1.3.5 + libmatroska v1.4.8

Video
ID : 1
Format : AVC
Format/Info : Advanced Video Codec
Format profile : High@L4
Format settings : CABAC / 6 Ref Frames
Format settings, CABAC : Yes
Format settings, ReFrames : 6 frames
Codec ID : V_MPEG4/ISO/AVC
Duration : 12 min 14 s
Bit rate : 1 776 kb/s
Width : 1 280 pixels
Height : 720 pixels
Display aspect ratio : 16:9
Frame rate mode : Variable
Frame rate : 23.976 (23976/1000) FPS
Color space : YUV
Chroma subsampling : 4:2:0
Bit depth : 8 bits
Scan type : Progressive
Bits/(Pixel*Frame) : 0.080
Stream size : 156 MiB (85%)
Writing library : x264 core 120 r2120 0c7dab9
Encoding settings : cabac=1 / ref=6 / deblock=1:1:1 / analyse=0x3:0x113 / me=umh / subme=8 / psy=1 / psy_rd=0.40:0.00 / mixed_ref=1 / me_range=16 / chroma_me=1 / trellis=1 / 8x8dct=1 / cqm=0 / deadzone=21,11 / fast_pskip=1 / chroma_qp_offset=-2 / threads=4 / sliced_threads=0 / nr=0 / decimate=1 / interlaced=0 / bluray_compat=0 / constrained_intra=0 / bframes=3 / b_pyramid=2 / b_adapt=2 / b_bias=0 / direct=3 / weightb=1 / open_gop=0 / weightp=2 / keyint=250 / keyint_min=23 / scenecut=40 / intra_refresh=0 / rc_lookahead=50 / rc=2pass / mbtree=1 / bitrate=1776 / ratetol=1.0 / qcomp=0.60 / qpmin=0 / qpmax=69 / qpstep=4 / cplxblur=20.0 / qblur=0.5 / vbv_maxrate=3552 / vbv_bufsize=8880 / nal_hrd=none / ip_ratio=1.40 / aq=1:0.60
Default : Yes
Forced : No

Audio #1
ID : 2
Format : AAC
Format/Info : Advanced Audio Codec
Format profile : LC
Codec ID : A_AAC-2
Duration : 12 min 15 s
Bit rate : 192 kb/s
Channel(s) : 2 channels
Channel positions : Front: L R
Sampling rate : 48.0 kHz
Frame rate : 46.875 FPS (1024 SPF)
Compression mode : Lossy
Stream size : 16.6 MiB (9%)
Language : Russian
Default : Yes
Forced : No

Audio #2
ID : 3
Format : AAC
Format/Info : Advanced Audio Codec
Format profile : LC
Codec ID : A_AAC-2
Duration : 12 min 15 s
Bit rate : 128 kb/s
Channel(s) : 2 channels
Channel positions : Front: L R
Sampling rate : 44.1 kHz
Frame rate : 43.066 FPS (1024 SPF)
Compression mode : Lossy
Stream size : 11.2 MiB (6%)
Language : Japanese
Default : No
Forced : No


Смотреть Online

http://moonwalk.cc/serial/0183acf375a2292c722f6b4234f9a875/iframe
Детали торрента:
Название:Dagashi Kashi 2 / Магазинчик сладостей [ТВ-2] [2018, TV, 12 ep] WEB-DL 720p Raw+Rus
Дата добавления:22 Апр 2018 12:37:59
Размер:2,15 GB
Раздают:1
Качают:0
Форум:Аниме с озвучкой (HD)

All rights reserved © 2015-2018