TORRENTS43.COM

Скачать Spirit of Wonder: China-san Tanpenshuu | Spirit of Wonder: China-san Short Stories | Дух чудес: Истории мисс Чайны [2004, Special, 3] DVDRip 480p raw


チャイナさん 短編集 | Spirit of Wonder: China-san Tanpenshuu | Spirit of Wonder: China-san Short Stories | Дух чудес: Истории мисс Чайны
Тип: Special
Жанр: Comedy, Sci-Fi, Seinen
Продолжительность: Special, 3 эпизода по 12 минут
Количество серий: 3

Дата выпуска: с 25.01.2001 по 23.01.2004
Производство: Япония, Ajia-Dou
Автор оригинала: Tsuruta Kenji
Режиссер: Takashi Annou

Ссылки: World-Art MAL

Описание:
Побочные истории и предыстория первой OVA. Побочные истории представляют очередные приключения Чайны, Джима и пр. Брекенриджа: Джим и Брекенридж, как обычно, не платят за комнату и занимаются всякой чепухой, естественно, их дело Луной не ограничилось.
Предыстория (и немного во втором sp) рассказывает о прошлом мисс Чайны и её знакомстве с вышеупомянутой парочкой.

Язык озвучки: Японский
Субтитры: Русские
Перевод: SnowLight и Треф

Качество видео: DVDRip
Видео: AVC/H.264, 704x480, 23.976 fps, 1300 kb/s, 0.160 bit/pixel
Аудио: AC3 2.0, 48.0 kHz, 448 kb/s, CBR

Скриншоты:

Эпизоды:

01. China-san no Shukushou; Shrinking of Miss China (12 мин, 25.01.2001)
02. China-san no Wakusei; Planet of Miss China (16 мин, 25.07.2001)
03. China-san no Sakazuki; Sake Cup of Miss China (12 мин, 23.01.2004)

Дополнительная информация:

1 и 2 OVA
torrent/136694/
torrent/136737/

Страница на WA ведёт на вторую OVA (http://www.world-art.ru/animation/animation.php?id=3614), что, собственно, логично.

Релиз делал Henshin, оригинал DVD содержит ещё omake второй OVA длиной в ~ 1 минуту, но т.к. я не нашёл её с оригинальной японской дорожкой (в релиз Henshin он не попал), то включать в раздачу не стал. Японские, китайские и английские субтитры в контейнере, скорее всего, с оригинального DVD (к последнему эпизоду только японские субтитры).

Mediainfo:


General
Unique ID : 249200792364188633391356971197499900890 (0xBB7A53AA56DD6A59948BAA43ED6303DA)
Complete name : [Henshin]_Spirit_of_Wonder_-_01_-_China-san_no_Shukushou_(x264_704x480_AC3).mkv
Format : Matroska
Format version : Version 2
File size : 145 MiB
Duration : 27 min 45 s
Overall bit rate : 729 kb/s
Encoded date : UTC 2009-04-28 14:11:41
Writing application : mkvmerge v2.7.0 ('Do It Again') built on Apr 15 2009 00:27:10
Writing library : libebml v0.7.7 + libmatroska v0.8.1

Video
ID : 1
Format : AVC
Format/Info : Advanced Video Codec
Format profile : High@L4
Format settings : CABAC / 16 Ref Frames
Format settings, CABAC : Yes
Format settings, ReFrames : 16 frames
Codec ID : V_MPEG4/ISO/AVC
Duration : 27 min 45 s
Bit rate : 266 kb/s
Nominal bit rate : 1 300 kb/s
Width : 704 pixels
Height : 480 pixels
Display aspect ratio : 4:3
Original display aspect ratio : 3:2
Frame rate mode : Constant
Frame rate : 23.976 (24000/1001) FPS
Color space : YUV
Chroma subsampling : 4:2:0
Bit depth : 8 bits
Scan type : Progressive
Bits/(Pixel*Frame) : 0.033
Stream size : 52.8 MiB (37%)
Title : Spirit of Wonder 『チャイナさんの縮小』
Writing library : x264 core 67 r1145 d2e1e1c
Encoding settings : cabac=1 / ref=16 / deblock=1:0:0 / analyse=0x3:0x133 / me=esa / subme=9 / psy_rd=0.8:0.0 / mixed_ref=1 / me_range=32 / chroma_me=1 / trel
lis=2 / 8x8dct=1 / cqm=0 / deadzone=21,11 / chroma_qp_offset=-2 / threads=6 / nr=0 / decimate=0 / mbaff=0 / bframes=16 / b_pyramid=1 / b_adapt=2 / b_bias=0 / direct=3 / wpredb=1 / keyint=240 / keyint_min=4 / scenecut=40 / rc=2pass / bitrate=1300 / ratetol=1.0 / qcomp=0.60 / qpmin=10 / qpmax=41 / qpstep=4 / cplxblur=20.0 / qblur=0.5 / ip_ratio=1.40 / pb_ratio
=1.30 / aq=1:0.80 Language : Japanese
Default : Yes
Forced : No

Audio
ID : 2
Format : AC-3
Format/Info : Audio Coding 3
Codec ID : A_AC3
Duration : 27 min 45 s
Bit rate mode : Constant
Bit rate : 448 kb/s
Channel(s) : 2 channels
Channel positions : Front: L R
Sampling rate : 48.0 kHz
Frame rate : 31.250 FPS (1536 SPF)
Bit depth : 16 bits
Compression mode : Lossy
Stream size : 89.0 MiB (61%)
Title : Dolby AC3 2ch
Language : Japanese
Service kind : Complete Main
Default : Yes
Forced : No

Text #1
ID : 3
Format : VobSub
Muxing mode : zlib
Codec ID : S_VOBSUB
Codec ID/Info : Picture based subtitle format used on DVDs
Language : English
Default : No
Forced : No

Text #2
ID : 4
Format : VobSub
Muxing mode : zlib
Codec ID : S_VOBSUB
Codec ID/Info : Picture based subtitle format used on DVDs
Title : Traditional
Language : Chinese
Default : No
Forced : No

Text #3
ID : 5
Format : VobSub
Muxing mode : zlib
Codec ID : S_VOBSUB
Codec ID/Info : Picture based subtitle format used on DVDs
Language : Japanese
Default : No
Forced : No

General
Unique ID : 245999495714438706585368218643054203090 (0xB911C78DF8A550D0AF28B7D969B010D2)
Complete name : [Henshin]_Spirit_of_Wonder_-_02_-_China-san_no_Wakusei_(x264_704x480_AC3).mkv
Format : Matroska
Format version : Version 2
File size : 205 MiB
Duration : 16 min 20 s Overall bit rate : 1 754 kb/s
Encoded date : UTC 2009-04-28 14:30:22 Writing application : mkvmerge v2.7.0 ('Do It Again') built on Apr 15 2009 00:27:10
Writing library : libebml v0.7.7 + libmatroska v0.8.1

Video
ID : 1
Format : AVC
Format/Info : Advanced Video Codec
Format profile : High@L4
Format settings : CABAC / 16 Ref Frames
Format settings, CABAC : Yes
Format settings, ReFrames : 16 frames
Codec ID : V_MPEG4/ISO/AVC
Duration : 16 min 20 s
Bit rate : 1 300 kb/s
Width : 704 pixels
Height : 480 pixels
Display aspect ratio : 4:3
Original display aspect ratio : 3:2
Frame rate mode : Constant
Frame rate : 23.976 (24000/1001) FPS
Color space : YUV
Chroma subsampling : 4:2:0
Bit depth : 8 bits
Scan type : Progressive
Bits/(Pixel*Frame) : 0.160
Stream size : 149 MiB (72%)
Title : Spirit of Wonder 『チャイナさんの惑星』
Writing library : x264 core 67 r1145 d2e1e1c
Encoding settings : cabac=1 / ref=16 / deblock=1:0:0 / analyse=0x3:0x133 / me=esa / subme=9 / psy_rd=0.8:0.0 / mixed_ref=1 / me_range=32 / chroma_me=1 / trel
lis=2 / 8x8dct=1 / cqm=0 / deadzone=21,11 / chroma_qp_offset=-2 / threads=6 / nr=0 / decimate=0 / mbaff=0 / bframes=16 / b_pyramid=1 / b_adapt=2 / b_bias=0 / direct=3 / wpredb=1 /
keyint=240 / keyint_min=4 / scenecut=40 / rc=2pass / bitrate=1300 / ratetol=1.0 / qcomp=0.60 / qpmin=10 / qpmax=41 / qpstep=4 / cplxblur=20.0 / qblur=0.5 / ip_ratio=1.40 / pb_ratio
=1.30 / aq=1:0.80
Language : Japanese
Default : Yes
Forced : No

Audio
ID : 2
Format : AC-3
Format/Info : Audio Coding 3
Codec ID : A_AC3
Duration : 16 min 20 s
Bit rate mode : Constant
Bit rate : 448 kb/s
Channel(s) : 2 channels
Channel positions : Front: L R
Sampling rate : 48.0 kHz
Frame rate : 31.250 FPS (1536 SPF)
Bit depth : 16 bits
Compression mode : Lossy
Delay relative to video : 19 ms
Stream size : 52.4 MiB (26%)
Title : Dolby AC3 2ch
Language : Japanese
Service kind : Complete Main
Default : Yes
Forced : No

Text #1
ID : 3
Format : VobSub
Muxing mode : zlib
Codec ID : S_VOBSUB Codec ID/Info : Picture based subtitle format used on DVDs
Language : English Default : No
Forced : No

Text #2
ID : 4
Format : VobSub
Muxing mode : zlib
Codec ID : S_VOBSUB
Codec ID/Info : Picture based subtitle format used on DVDs
Title : Traditional
Language : Chinese
Default : No
Forced : No

Text #3
ID : 5
Format : VobSub
Muxing mode : zlib
Codec ID : S_VOBSUB
Codec ID/Info : Picture based subtitle format used on DVDs
Language : Japanese
Default : No
Forced : No

General
Unique ID : 248395532094849927486434429746825729002 (0xBADF3D44D1B53568B9EB3149A1A113EA)
Complete name : [Henshin]_Spirit_of_Wonder_-_03_-_China-san_no_Sakazuki_(x264_720x480_AC3).mkv
Format : Matroska
Format version : Version 2
File size : 166 MiB
Duration : 12 min 37 s
Overall bit rate mode : Variable
Overall bit rate : 1 840 kb/s
Encoded date : UTC 2009-04-29 18:08:57
Writing application : mkvmerge v2.7.0 ('Do It Again') built on Apr 15 2009 00:27:10
Writing library : libebml v0.7.7 + libmatroska v0.8.1

Video
ID : 1
Format : AVC
Format/Info : Advanced Video Codec
Format profile : High@L4
Format settings : CABAC / 16 Ref Frames
Format settings, CABAC : Yes
Format settings, ReFrames : 16 frames
Codec ID : V_MPEG4/ISO/AVC
Duration : 12 min 37 s
Bit rate : 1 300 kb/s
Width : 720 pixels
Height : 480 pixels
Display aspect ratio : 4:3
Original display aspect ratio : 3:2
Frame rate mode : Constant
Frame rate : 23.976 (24000/1001) FPS
Color space : YUV
Chroma subsampling : 4:2:0
Bit depth : 8 bits
Scan type : Progressive
Bits/(Pixel*Frame) : 0.157
Stream size : 114 MiB (68%)
Title : Spirit of Wonder 『チャイナさんの盃』
Writing library : x264 core 67 r1145 d2e1e1c
Encoding settings : cabac=1 / ref=16 / deblock=1:0:0 / analyse=0x3:0x133 / me=esa / subme=9 / psy_rd=0.8:0.0 / mixed_ref=1 / me_range=32 / chroma_me=1 / trellis=2 / 8x8dct=1 / cqm=0 / deadzone=21,11 / chroma_qp_offset=-2 / threads=6 / nr=0 / decimate=0 / mbaff=0 / bframes=16 / b_pyramid=1 / b_adapt=2 / b_bias=0 / direct=3 / wpredb=1 /
keyint=240 / keyint_min=4 / scenecut=40 / rc=2pass / bitrate=1300 / ratetol=1.0 / qcomp=0.60 / qpmin=10 / qpmax=41 / qpstep=4 / cplxblur=20.0 / qblur=0.5 / ip_ratio=1.40 / pb_ratio=1.30 / aq=1:0.80
Language : Japanese
Default : Yes
Forced : No

Audio #1
ID : 2
Format : AC-3
Format/Info : Audio Coding 3
Codec ID : A_AC3
Duration : 12 min 37 s
Bit rate mode : Constant
Bit rate : 448 kb/s
Channel(s) : 2 channels
Channel positions : Front: L R
Sampling rate : 48.0 kHz
Frame rate : 31.250 FPS (1536 SPF)
Bit depth : 16 bits
Compression mode : Lossy
Stream size : 40.5 MiB (24%)
Title : Dolby AC3 2ch
Language : Japanese
Service kind : Complete Main
Default : Yes
Forced : No

Audio #2
ID : 3
Format : Vorbis
Format settings, Floor : 1
Codec ID : A_VORBIS
Duration : 12 min 37 s
Bit rate mode : Variable
Bit rate : 96.0 kb/s
Channel(s) : 2 channels
Sampling rate : 48.0 kHz
Compression mode : Lossy
Stream size : 8.67 MiB (5%)
Title : Vorbis 2ch Commentary
Writing application : Made with BeSweet v1.5b31
Writing library : aoTuV Beta 5 (UTC 2006-10-24)
Language : Japanese
Default : No
Forced : No
Encoded_Application/Url : http://DSPguru.doom9.org

Text
ID : 4
Format : VobSub
Muxing mode : zlib
Codec ID : S_VOBSUB
Codec ID/Info : Picture based subtitle format used on DVDs
Language : Japanese
Default : No
Forced : No
Детали торрента:
Название:Spirit of Wonder: China-san Tanpenshuu | Spirit of Wonder: China-san Short Stories | Дух чудес: Истории мисс Чайны [2004, Special, 3] DVDRip 480p raw
Дата добавления:30 Янв 2018 01:28:39
Размер:516 MB
Раздают:4
Качают:0
Форум:Аниме (SD)

All rights reserved © 2015-2018