TORRENTS43.COM

Скачать Гандбол. Чемпионат Европы 2018. Загреб (Хорватия). 1/2 Финала. Франция — Испания (26.01.2018) HDTVRip [H.264/720p-LQ] [hand made 50fps]


Гандбол. Чемпионат Европы 2018. Загреб (Хорватия). 1/2 Финала. Франция — Испания (26.01.2018) HDTVRip [H.264/720p-LQ]
Телекомпания: Матч! Игра HD
Жанр: Спорт

Комментатор: Юрий Димчук

Описание: 26 января 2018 года, пятница. 20:00 МСК
Чемпионат Европы по гандболу среди мужчин 2018. Загреб (Хорватия)
1/2 Финала
Франция — Испания
Стадион: Арена Загреб (Загреб, Хорватия), 6000 зрителей (при вместимости 15200)
Судьи: Гьорги Начевски (Македония), Славе Николов (Македония)

Релиз от: Багга

Продолжительность: 01:28:22
Качество видео: HDTVRip
Язык озвучки: Русский
Субтитры: отсутствуют

Видео: AVC/H.264, 1280x720 (16:9), ~3500 Kbps, 50 fps
Аудио: AC3, 2 ch, 44,1 kHz, 192 Kbps

Mediainfo:


Общее
Уникальный идентификатор : 226265287811437249660693973815216005911 (0xAA391BFC3557C552E9ACFFD1B7CF6317)
Полное имя : F:\SPORT\Гандбол\Евро-2018\(26.01.2018)_EHF Mens Handball EuroCh 2018.SF1. France - Spain.mkv
Формат : Matroska
Версия формата : Version 4 / Version 2
Размер файла : 2,22 Гбайт
Продолжительность : 1 ч. 28 м.
Общий поток : 3602 Кбит/сек
Дата кодирования : UTC 2018-01-31 08:09:59
Программа кодирования : mkvmerge v20.0.0 ('I Am The Sun') 32-bit
Библиотека кодирования : libebml v1.3.5 + libmatroska v1.4.8

Видео
Идентификатор : 1
Формат : AVC
Формат/Информация : Advanced Video Codec
Профиль формата : High@L3.2
Настройки формата : CABAC / 4 Ref Frames
Параметр CABAC формата : Да
Параметр RefFrames формата : 4 кадра
Идентификатор кодека : V_MPEG4/ISO/AVC
Продолжительность : 1 ч. 28 м.
Битрейт : 3500 Кбит/сек
Ширина : 1280 пикселей
Высота : 720 пикселей
Соотношение сторон : 16:9
Режим частоты кадров : Постоянный
Частота кадров : 50,000 кадров/сек
Цветовое пространство : YUV
Субдискретизация насыщенности : 4:2:0
Битовая глубина : 8 бит
Тип развёртки : Прогрессивная
Бит/(Пиксели*Кадры) : 0.076
Размер потока : 2,10 Гбайт (95%)
Библиотека кодирования : x264 core 148 r2665M a01e339
Настройки программы : cabac=1 / ref=3 / deblock=1:-2:-2 / analyse=0x3:0x133 / me=hex / subme=7 / psy=1 / psy_rd=1.00:0.20 / mixed_ref=1 / me_range=16 / chroma_me=1 / trellis=1 / 8x8dct=1 / cqm=0 / deadzone=21,11 / fast_pskip=1 / chroma_qp_offset=-3 / threads=5 / lookahead_threads=1 / sliced_threads=0 / nr=0 / decimate=1 / interlaced=0 / bluray_compat=0 / constrained_intra=0 / bframes=3 / b_pyramid=2 / b_adapt=2 / b_bias=0 / direct=3 / weightb=1 / open_gop=0 / weightp=2 / keyint=250 / keyint_min=25 / scenecut=40 / intra_refresh=0 / rc_lookahead=40 / rc=cbr / mbtree=1 / bitrate=3500 / ratetol=1.0 / qcomp=0.60 / qpmin=0 / qpmax=69 / qpstep=4 / vbv_maxrate=3500 / vbv_bufsize=3500 / nal_hrd=none / filler=0 / ip_ratio=1.40 / aq=1:1.00
Default : Да
Forced : Нет
Цветовой диапазон : Limited
Основные цвета : BT.709
Характеристики трансфера : BT.709
Коэффициенты матрицы : BT.709

Аудио
Идентификатор : 2
Формат : AC-3
Формат/Информация : Audio Coding 3
Параметр Endianness формата : Big
Идентификатор кодека : A_AC3
Продолжительность : 1 ч. 28 м.
Вид битрейта : Постоянный
Битрейт : 192 Кбит/сек
Каналы : 2 канала
Расположение каналов : Front: L R
Частота : 44,1 КГц
Частота кадров : 28,711 кадров/сек (1536 SPF)
Битовая глубина : 16 бит
Метод сжатия : С потерями
Задержка видео : 29 мс.
Размер потока : 121 Мбайт (5%)
Язык : Russian
ServiceKind/String : Complete Main
Default : Да
Forced : Нет
Скриншоты:


Все одноименные релизы в Клубе
Детали торрента:
Название:Гандбол. Чемпионат Европы 2018. Загреб (Хорватия). 1/2 Финала. Франция — Испания (26.01.2018) HDTVRip [H.264/720p-LQ] [hand made 50fps]
Дата добавления:31 Янв 2018 13:09:56
Размер:2,22 GB
Раздают:
Качают:0
Форум:Баскетбол, Волейбол, Гандбол

All rights reserved © 2015-2018