TORRENTS43.COM

Скачать Гандбол. Чемпионат Европы 2018. Загреб (Хорватия). 1/2 Финала. Дания — Швеция (26.01.2018) HDTVRip [H.264/720p-LQ] [hand made 50fps]


Гандбол. Чемпионат Европы 2018. Загреб (Хорватия). 1/2 Финала. Дания — Швеция (26.01.2018) HDTVRip [H.264/720p-LQ]
Телекомпания: Матч! Игра HD
Жанр: Спорт

Комментаторы: Артём Шмельков, Сергей Приголовкин

Описание: 26 января 2018 года, пятница. 22:30 МСК
Чемпионат Европы по гандболу среди мужчин 2018. Загреб (Хорватия)
1/2 Финала
Дания — Швеция
Стадион: Арена Загреб (Загреб, Хорватия), 9000 зрителей (при вместимости 15200)
Судьи: Ларс Гайпель (Германия), Маркус Хельбиг (Германия)

Релиз от: Багга

Продолжительность: 01:45:06
Качество видео: HDTVRip
Язык озвучки: Русский
Субтитры: отсутствуют

Видео: AVC/H.264, 1280x720 (16:9), ~3413 Kbps, 50 fps
Аудио: AC3, 2 ch, 44,1 kHz, 192 Kbps

Mediainfo:


Общее
Уникальный идентификатор : 132071306318768864371429498675878423235 (0x635C022419FDC8A50511DF81C927EAC3)
Полное имя : F:\SPORT\Гандбол\Евро-2018\(26.01.2018)_EHF Mens Handball EuroCh 2018.SF2. Denmark - Sweden.mkv
Формат : Matroska
Версия формата : Version 4 / Version 2
Размер файла : 2,65 Гбайт
Продолжительность : 1 ч. 45 м.
Общий поток : 3608 Кбит/сек
Дата кодирования : UTC 2018-01-31 08:46:29
Программа кодирования : mkvmerge v20.0.0 ('I Am The Sun') 32-bit
Библиотека кодирования : libebml v1.3.5 + libmatroska v1.4.8

Видео
Идентификатор : 1
Формат : AVC
Формат/Информация : Advanced Video Codec
Профиль формата : High@L3.2
Настройки формата : CABAC / 4 Ref Frames
Параметр CABAC формата : Да
Параметр RefFrames формата : 4 кадра
Идентификатор кодека : V_MPEG4/ISO/AVC
Продолжительность : 1 ч. 45 м.
Битрейт : 3413 Кбит/сек
Ширина : 1280 пикселей
Высота : 720 пикселей
Соотношение сторон : 16:9
Режим частоты кадров : Постоянный
Частота кадров : 50,000 кадров/сек
Цветовое пространство : YUV
Субдискретизация насыщенности : 4:2:0
Битовая глубина : 8 бит
Тип развёртки : Прогрессивная
Бит/(Пиксели*Кадры) : 0.074
Размер потока : 2,51 Гбайт (95%)
Default : Да
Forced : Нет
Цветовой диапазон : Limited
Основные цвета : BT.709
Характеристики трансфера : BT.709
Коэффициенты матрицы : BT.709

Аудио
Идентификатор : 2
Формат : AC-3
Формат/Информация : Audio Coding 3
Параметр Endianness формата : Big
Идентификатор кодека : A_AC3
Продолжительность : 1 ч. 45 м.
Вид битрейта : Постоянный
Битрейт : 192 Кбит/сек
Каналы : 2 канала
Расположение каналов : Front: L R
Частота : 44,1 КГц
Частота кадров : 28,711 кадров/сек (1536 SPF)
Битовая глубина : 16 бит
Метод сжатия : С потерями
Размер потока : 144 Мбайт (5%)
Язык : Russian
ServiceKind/String : Complete Main
Default : Да
Forced : Нет
Скриншоты:


Все одноименные релизы в Клубе
Детали торрента:
Название:Гандбол. Чемпионат Европы 2018. Загреб (Хорватия). 1/2 Финала. Дания — Швеция (26.01.2018) HDTVRip [H.264/720p-LQ] [hand made 50fps]
Дата добавления:31 Янв 2018 13:30:47
Размер:2,65 GB
Раздают:
Качают:0
Форум:Баскетбол, Волейбол, Гандбол

All rights reserved © 2015-2018