TORRENTS43.COM

Скачать Чуингам (2016) WEBRip


Чуингам (2016) WEBRip «Знал бы прикуп - жил бы в Сочи»
Производство: Россия
Жанр: Короткометражный, боевик, комедия, приключения

Режиссер: Александр Пресняков
Актеры: Анастасия Лозовская, Михаил Салин, Александр Пресняков, Батраз Засеев, Александр Белкин

Описание:
Лучшие игроки собрались за покерным столом, чтобы взять банк — 1 млн. долларов. Ставки высоки и каждый имеет своего козыря в рукаве.


Возраст: 12+ (зрителям, достигшим 12 лет)

Релиз от: Алехаndr
Продолжительность: 00:12:47
Качество видео: WEBRip
Субтитры: Отсутствуют

Видео: Xvid, 720x400 (16:9), ~965 Kbps
Аудио: AC3, 2 ch, 192 Kbps

Mediainfo:


Общее
Полное имя : D:\Чуингам (2016).by.Алехаndr.avi
Формат : AVI
Формат/Информация : Audio Video Interleave
Размер файла : 107 Мбайт
Продолжительность : 12 м. 47 с.
Общий поток : 1169 Кбит/сек
Программа кодирования : VirtualDubMod 1.5.10.3 | www.virtualdub-fr.org || (build 2550/release)
Библиотека кодирования : VirtualDubMod build 2550/release

Видео
Идентификатор : 0
Формат : MPEG-4 Visual
Профиль формата : Advanced Simple@L5
Настройки формата : BVOP2
Параметр BVOP формата : 2
Параметр QPel формата : Нет
Параметр GMC формата : Без точки перехода
Параметр матрицы формата : Default (H.263)
Идентификатор кодека : XVID
Идентификатор кодека/Подсказка : XviD
Продолжительность : 12 м. 47 с.
Битрейт : 967 Кбит/сек
Ширина : 720 пикселей
Высота : 400 пикселей
Соотношение сторон : 16:9
Частота кадров : 23,976 (24000/1001) кадра/сек
Частота кадров в оригинале : 23,976 (23976/1000) кадра/сек
Цветовое пространство : YUV
Субдискретизация насыщенности : 4:2:0
Битовая глубина : 8 бит
Тип развёртки : Прогрессивная
Метод сжатия : С потерями
Бит/(Пиксели*Кадры) : 0.140
Размер потока : 88,5 Мбайт (83%)
Библиотека кодирования : XviD 73

Аудио
Идентификатор : 1
Формат : AC-3
Формат/Информация : Audio Coding 3
Идентификатор кодека : 2000
Продолжительность : 12 м. 47 с.
Вид битрейта : Постоянный
Битрейт : 192 Кбит/сек
Каналы : 2 канала
Расположение каналов : Front: L R
Частота : 48,0 КГц
Частота кадров : 31,250 кадров/сек (1536 SPF)
Битовая глубина : 16 бит
Метод сжатия : С потерями
Размер потока : 17,6 Мбайт (16%)
Выравнивание : Разделение по промежуткам
Продолжительность промежутка : 42 мс. (1,00 видеокадр)
Время предзагрузки промежутка : 500 мс.
ServiceKind/String : Complete Main
Скриншоты:


Все одноименные релизы в Клубе
Детали торрента:
Название:Чуингам (2016) WEBRip
Дата добавления:03 Фев 2018 16:16:09
Размер:107 MB
Раздают:7
Качают:0
Форум:Отечественные Фильмы (HD*Rip/LQ, DVDRip, SATRip, VHSRip)

All rights reserved © 2015-2018