TORRENTS43.COM

Скачать Видоизмененный углерод / Altered Carbon (2018) WEBRip [H.264/1080p-LQ] (сезон 1, серии 1-10 из 10) OMSKBIRD [AD]


Видоизмененный углерод / Altered Carbon (2018) WEBRip [H.264/1080p-LQ] (сезон 1, серии 1-10 из 10) OMSKBIRD
Производство: США
Жанр: фантастика, триллер, драма

Режиссер: Ута Бризвитц, Питер Хор, Ник Харран
Актеры: Юэль Киннаман, Джеймс Пьюрфой, Кристин Леман, Антонио Марциале, Крис Коннер, Хиро Канагава, Алика Аутран, Тич Грант, Хэйли Лоу, Заф Пару и др.

Описание:
Земля, XXVII век. Мир, в котором появилась возможность «сгружать» человеческое сознание и личность из одного тела в другое. Идеальный мир и для преступников, и для полицейских, и для армии, но вряд ли идеальный для бывшего военного спецназовца Такеси Ковача, которого миллиардер Бэнкрофт нанял для расследования гибели одного из своих тел. Внешне — явное самоубийство. В действительности — явное убийство. Вот только воспоминания об убийце уничтожены вместе с телом-клоном.


Дата мировой премьеры: 2 февраля 2018

Продолжительность: ~01:00:00 серия
Качество видео: WEBRip
Перевод: Многоголосый закадровый, профессиональный | OMSKBIRD
Субтитры: английские
Реклама: присутствуют аудио вставки рекламы

Видео: AVC/H.264, 1920х1080 (16:9), ~3298 kbps
Аудио # 1: AC-3, 6 ch, 384 kbps - русский, многоголосый закадровый
Аудио # 2: AC-3, 6 ch, 384 kbps - английский

Mediainfo:


General
Unique ID : 177849671780320729203033993844097285169 (0x85CC99D12EA09EECBBC3DFF92BE3FC31)
Complete name : H:\Мои Документы\Видео\РАЗДАЧИ\УГЛЕРОД\Altered Carbon S01 WEBRip 1080p (OMSKBIRD)\Altered Carbon S01E01 WEBRip 1080p (OMSKBIRD).mkv
Format : Matroska
Format version : Version 2
File size : 1.71 GiB
Duration : 58 min 53 s
Overall bit rate mode : Variable
Overall bit rate : 4 148 kb/s
Encoded date : UTC 2018-02-03 13:11:40
Writing application : mkvmerge v4.0.0 ('The Stars were mine') сборка от Jun 6 2010 16:18:42
Writing library : libebml v1.0.0 + libmatroska v1.0.0

Video
ID : 1
Format : AVC
Format/Info : Advanced Video Codec
Format profile : Main@L4
Format settings, CABAC : Yes
Format settings, RefFrames : 3 frames
Codec ID : V_MPEG4/ISO/AVC
Duration : 58 min 53 s
Bit rate mode : Variable
Bit rate : 3 298 kb/s
Nominal bit rate : 3 480 kb/s
Maximum bit rate : 5 220 kb/s
Width : 1 920 pixels
Height : 1 080 pixels
Display aspect ratio : 16:9
Frame rate mode : Constant
Frame rate : 23.976 (24000/1001) FPS
Color space : YUV
Chroma subsampling : 4:2:0
Bit depth : 8 bits
Scan type : Progressive
Bits/(Pixel*Frame) : 0.066
Stream size : 1.36 GiB (79%)
Writing library : x264 core 148 r2715 7e75228
Encoding settings : cabac=1 / ref=3 / deblock=1:0:0 / analyse=0x1:0x111 / me=umh / subme=10 / psy=1 / psy_rd=1.00:0.00 / mixed_ref=1 / me_range=24 / chroma_me=1 / trellis=2 / 8x8dct=0 / cqm=0 / deadzone=21,11 / fast_pskip=1 / chroma_qp_offset=-2 / threads=8 / lookahead_threads=1 / sliced_threads=0 / nr=0 / decimate=1 / interlaced=0 / bluray_compat=0 / stitchable=1 / constrained_intra=0 / bframes=2 / b_pyramid=0 / b_adapt=2 / b_bias=0 / direct=3 / weightb=1 / open_gop=0 / weightp=2 / keyint=48 / keyint_min=25 / scenecut=0 / intra_refresh=0 / rc_lookahead=48 / rc=2pass / mbtree=1 / bitrate=3480 / ratetol=1.0 / qcomp=0.50 / qpmin=6 / qpmax=51 / qpstep=4 / cplxblur=20.0 / qblur=0.5 / vbv_maxrate=5220 / vbv_bufsize=6960 / nal_hrd=vbr / filler=0 / ip_ratio=1.40 / aq=1:1.00
Default : No
Forced : No

Audio #1
ID : 2
Format : AC-3
Format/Info : Audio Coding 3
Format settings, Endianness : Big
Codec ID : A_AC3
Duration : 58 min 53 s
Bit rate mode : Constant
Bit rate : 384 kb/s
Channel(s) : 6 channels
Channel positions : Front: L C R, Side: L R, LFE
Sampling rate : 48.0 kHz
Frame rate : 31.250 FPS (1536 SPF)
Bit depth : 16 bits
Compression mode : Lossy
Stream size : 162 MiB (9%)
Language : Russian
Service kind : Complete Main
Default : Yes
Forced : No

Audio #2
ID : 3
Format : AC-3
Format/Info : Audio Coding 3
Format settings, Endianness : Big
Codec ID : A_AC3
Duration : 58 min 53 s
Bit rate mode : Constant
Bit rate : 384 kb/s
Channel(s) : 6 channels
Channel positions : Front: L C R, Side: L R, LFE
Sampling rate : 48.0 kHz
Frame rate : 31.250 FPS (1536 SPF)
Bit depth : 16 bits
Compression mode : Lossy
Stream size : 162 MiB (9%)
Language : English
Service kind : Complete Main
Default : No
Forced : No

Text
ID : 4
Format : UTF-8
Codec ID : S_TEXT/UTF8
Codec ID/Info : UTF-8 Plain Text
Title : SDH
Language : English
Default : No
Forced : No
Скриншоты:


Все одноименные релизы в Клубе

Смотреть Online

http://moonwalk.cc/serial/bd9dddbcea94f291953363de4fb3470b/iframe
Детали торрента:
Название:Видоизмененный углерод / Altered Carbon (2018) WEBRip [H.264/1080p-LQ] (сезон 1, серии 1-10 из 10) OMSKBIRD [AD]
Дата добавления:05 Фев 2018 20:31:44
Размер:16,7 GB
Раздают:36
Качают:1
Форум:Зарубежные сериалы

All rights reserved © 2015-2018