TORRENTS43.COM

Скачать Гандбол. Чемпионат Европы 2018. Загреб (Хорватия). Матч за 3-е место. Франция — Дания (28.01.2018) WEB-DL [H.264/720p-LQ] [EN]


Гандбол. Чемпионат Европы 2018. Загреб (Хорватия). Матч за 3-е место. Франция — Дания (28.01.2018) WEB-DL [H.264/720p-LQ] [EN]
Телекомпания: EHF TV
Жанр: Спорт

Описание: 28 января 2018 года, воскресенье. 20:00 МСК
Чемпионат Европы по гандболу среди мужчин 2018. Загреб (Хорватия)
Матч за 3-е место
Франция — Дания
Стадион: Арена Загреб (Загреб, Хорватия), 6700 зрителей (при вместимости 15200)
Судьи: Сорин-Лауренциу Дину (Румыния), Константин Дин (Румыния)

Продолжительность: 01:47:45
Качество видео: WEB-DL
Язык озвучки: Английский
Субтитры: отсутствуют

Видео: AVC/H.264, 1280x720 (16:9), ~3990 Kbps
Аудио: AAC, 2 ch, 48 kHz, ~105 Kbps

Mediainfo:


Общее
Уникальный идентификатор : 79854019594104688876822413627148255899 (0x3C135322EBB0FDAD18343EE7B8CCC29B)
Полное имя : F:\SPORT\Гандбол\Евро-2018\(28.01.2018)_EHF Mens Handball EuroCh 2018.3rd Place Match. France - Denmark.mkv
Формат : Matroska
Версия формата : Version 4 / Version 2
Размер файла : 3,08 Гбайт
Продолжительность : 1 ч. 47 м.
Общий поток : 4097 Кбит/сек
Дата кодирования : UTC 2018-02-02 06:52:56
Программа кодирования : mkvmerge v20.0.0 ('I Am The Sun') 32-bit
Библиотека кодирования : libebml v1.3.5 + libmatroska v1.4.8

Видео
Идентификатор : 1
Формат : AVC
Формат/Информация : Advanced Video Codec
Профиль формата : High@L3.2
Настройки формата : CABAC / 4 Ref Frames
Параметр CABAC формата : Да
Параметр RefFrames формата : 4 кадра
Идентификатор кодека : V_MPEG4/ISO/AVC
Продолжительность : 1 ч. 47 м.
Битрейт : 3990 Кбит/сек
Ширина : 1280 пикселей
Высота : 720 пикселей
Соотношение сторон : 16:9
Режим частоты кадров : Постоянный
Частота кадров : 25,000 кадров/сек
Цветовое пространство : YUV
Субдискретизация насыщенности : 4:2:0
Битовая глубина : 8 бит
Тип развёртки : Прогрессивная
Бит/(Пиксели*Кадры) : 0.173
Размер потока : 3,00 Гбайт (97%)
Default : Да
Forced : Нет

Аудио
Идентификатор : 2
Формат : AAC
Формат/Информация : Advanced Audio Codec
Профиль формата : LC
Идентификатор кодека : A_AAC-2
Продолжительность : 1 ч. 47 м.
Битрейт : 105 Кбит/сек
Каналы : 2 канала
Расположение каналов : Front: L R
Частота : 48,0 КГц
Частота кадров : 46,875 кадров/сек (1024 SPF)
Метод сжатия : С потерями
Размер потока : 80,6 Мбайт (3%)
Язык : English
Default : Да
Forced : Нет
Скриншоты:


Все одноименные релизы в Клубе
Детали торрента:
Название:Гандбол. Чемпионат Европы 2018. Загреб (Хорватия). Матч за 3-е место. Франция — Дания (28.01.2018) WEB-DL [H.264/720p-LQ] [EN]
Дата добавления:05 Фев 2018 00:33:03
Размер:3,08 GB
Раздают:
Качают:0
Форум:Баскетбол, Волейбол, Гандбол

All rights reserved © 2015-2018