TORRENTS43.COM

Скачать Молчание ягнят / The Silence of the Lambs (1991) BDRemux [H.264/1080p]


Молчание ягнят / The Silence of the Lambs (1991) BDRemux [H.264/1080p]
Производство: США, Orion Pictures Corporation, Strong Heart/Demme Production
Жанр: Триллер, Криминал, Драма

Режиссер: Джонатан Демме
Актеры: Джоди Фостер, Энтони Хопкинс, Брук Смит, Скотт Гленн, Тед Левайн, Энтони Хилд, Кейси Леммонс, Дайан Бэйкер, Чарльз Нэпьер, Роджер Корман, Дэн Батлер, Пол Лэзар, Пэт МакНамара, Трейси Уолтер, Фрэнки Фэйзон

Описание:
Психопат похищает и убивает молодых женщин по всему Среднему Западу Америки. ФБР, уверенное в том, что все преступления совершены одним и тем же человеком, поручает агенту Клариссе Стерлинг встретиться с заключенным-маньяком, который мог бы объяснить следствию психологические мотивы серийного убийцы и тем самым вывести на его след.
Заключенный, доктор психиатрии Ганнибал Лектер, отбывает наказание за убийства и каннибализм. Он согласен помочь Клариссе лишь в том случае, если она попотчует его больное воображение подробностями своей сложной личной жизни. Такие двусмысленные отношения не только порождают в душе Клариссы внутренний конфликт, но и сталкивают ее лицом к лицу с помешанным до гениальности убийцей. Воплощение дьявола настолько сильно, что ей может не хватить мужества и стойкости, чтобы остановить его…


Возраст: 18+ (зрителям, достигшим 18 лет. запрещено для детей)
Рейтинг MPAA: R (лицам до 17 лет обязательно присутствие взрослого)

Релиз от: Torrents43.com

Продолжительность: 01:58:48
Качество видео: BDRemux
Перевод: Дублированный, многоголосый закадровый, двухголосый закадровый, одноголосый закадровый
Субтитры: Русские, украинские, английские

Видео: AVC/H.264, 1920x1080, ~34,6 Mbps
Аудио 01: DTS 5.1, 768 kbps - Русский, дубляж (BD CEE)
Аудио 02: DTS-HD MA 5.1, 3449 kbps - Русский, многоголосый (Видеосервис)
Аудио 03: DTS-HD MA 5.1, 3446 kbps - Русский, многоголосый (Киномания)
Аудио 04: DTS 5.1, 755 kbps - Русский, многоголосый (Позитив)
Аудио 05: AC3 2.0, 192 kbps - Русский, многоголосый (НТВ+)
Аудио 06: AC3 2.0, 192 kbps - Русский, двухголосый (НТВ)
Аудио 07: AC3 2.0, 192 kbps - Русский, двухголосый (Союз Видео)
Аудио 08: AC3 2.0, 192 kbps - Русский, двухголосый (Лазер Видео)
Аудио 09: DTS-HD MA 5.1, 3448 kbps - Русский, одноголосый (Г. Либергал)
Аудио 10: DTS-HD MA 5.1, 3463 kbps - Русский, одноголосый (Ю. Сербин)
Аудио 11: DTS-HD MA 5.1, 3436 kbps - Русский, одноголосый (Ю. Живов)
Аудио 12: DTS-HD MA 5.1, 3461 kbps - Русский, одноголосый (А. Гаврилов)
Аудио 13: DTS-HD MA 5.1, 3467 kbps - Русский, одноголосый (А. Михалев)
Аудио 14: AC3 5.1, 384 kbps - Украинский, двухголосый (1+1)
Аудио 15: DTS -HD MA 5.1, 3948 kbps - Английский

Mediainfo:


Complete name : The.Silence.of.the.Lambs.(1991).BDRemux.torrents43.comv
Format : Matroska
Format version : Version 4 / Version 2
File size : 54.2 GiB
Duration : 1 h 58 min
Overall bit rate mode : Variable
Overall bit rate : 65.3 Mb/s
Movie name : The Silence of the Lambs.(1991).BDRemux.torrents43.com />Encoded date : UTC 2018-02-12 12:17:14
Writing application : mkvmerge v8.3.0 ('Over the Horizon') 64bit
Writing library : libebml v1.3.1 + libmatroska v1.4.2

Video
ID : 1
Format : AVC
Format/Info : Advanced Video Codec
Format profile : High@L4.1
Format settings : CABAC / 4 Ref Frames
Format settings, CABAC : Yes
Format settings, ReFrames : 4 frames
Codec ID : V_MPEG4/ISO/AVC
Duration : 1 h 58 min
Bit rate mode : Variable
Bit rate : 34.5 Mb/s
Maximum bit rate : 37.0 Mb/s
Width : 1 920 pixels
Height : 1 080 pixels
Display aspect ratio : 16:9
Frame rate mode : Constant
Frame rate : 23.976 (24000/1001) FPS
Color space : YUV
Chroma subsampling : 4:2:0
Bit depth : 8 bits
Scan type : Progressive
Bits/(Pixel*Frame) : 0.694
Stream size : 28.6 GiB (53%)
Title : The Silence of the Lambs.(1991).BDRemux
Language : English
Default : Yes
Forced : No

Audio #1
ID : 2
Format : DTS
Format/Info : Digital Theater Systems
Codec ID : A_DTS
Duration : 1 h 58 min
Bit rate mode : Constant
Bit rate : 768 kb/s
Channel(s) : 6 channels
Channel positions : Front: L C R, Side: L R, LFE
Sampling rate : 48.0 kHz
Frame rate : 93.750 FPS (512 SPF)
Bit depth : 24 bits
Compression mode : Lossy
Stream size : 651 MiB (1%)
Title : DTS 5.1 @ 768 kbps - Dub, BD CEE
Language : Russian
Default : Yes
Forced : No

Audio #2
ID : 3
Format : DTS
Format/Info : Digital Theater Systems
Format profile : MA / Core
Codec ID : A_DTS
Duration : 1 h 58 min
Bit rate mode : Variable / Constant
Bit rate : 3 449 kb/s / 1 509 kb/s
Channel(s) : 6 channels
Channel positions : Front: L C R, Side: L R, LFE
Sampling rate : 48.0 kHz
Frame rate : 93.750 FPS (512 SPF)
Bit depth : 24 bits
Compression mode : Lossless / Lossy
Stream size : 2.86 GiB (5%)
Title : DTS-HD MA 5.1 @ 3449 kbps - MVO, Видеосервис
Language : Russian
Default : No
Forced : No

Audio #3
ID : 4
Format : DTS
Format/Info : Digital Theater Systems
Format profile : MA / Core
Codec ID : A_DTS
Duration : 1 h 58 min
Bit rate mode : Variable / Constant
Bit rate : 3 466 kb/s / 1 509 kb/s
Channel(s) : 6 channels
Channel positions : Front: L C R, Side: L R, LFE
Sampling rate : 48.0 kHz
Frame rate : 93.750 FPS (512 SPF)
Bit depth : 24 bits
Compression mode : Lossless / Lossy
Stream size : 2.88 GiB (5%)
Title : DTS-HD MA 5.1 @ 3466 kbps - MVO, Киномания
Language : Russian
Default : No
Forced : No

Audio #4
ID : 5
Format : DTS
Format/Info : Digital Theater Systems
Codec ID : A_DTS
Duration : 1 h 58 min
Bit rate mode : Constant
Bit rate : 755 kb/s
Channel(s) : 6 channels
Channel positions : Front: L C R, Side: L R, LFE
Sampling rate : 48.0 kHz
Frame rate : 93.750 FPS (512 SPF)
Bit depth : 24 bits
Compression mode : Lossy
Stream size : 641 MiB (1%)
Title : DTS 5.1 @ 755 kbps - MVO, Позитив
Language : Russian
Default : No
Forced : No

Audio #5
ID : 6
Format : AC-3
Format/Info : Audio Coding 3
Codec ID : A_AC3
Duration : 1 h 58 min
Bit rate mode : Constant
Bit rate : 192 kb/s
Channel(s) : 2 channels
Channel positions : Front: L R
Sampling rate : 48.0 kHz
Frame rate : 31.250 FPS (1536 SPF)
Bit depth : 16 bits
Compression mode : Lossy
Stream size : 163 MiB (0%)
Title : AC3 2.0 @ 192 kbps - MVO, НТВ+
Language : Russian
Service kind : Complete Main
Default : No
Forced : No

Audio #6
ID : 7
Format : AC-3
Format/Info : Audio Coding 3
Codec ID : A_AC3
Duration : 1 h 58 min
Bit rate mode : Constant
Bit rate : 192 kb/s
Channel(s) : 2 channels
Channel positions : Front: L R
Sampling rate : 48.0 kHz
Frame rate : 31.250 FPS (1536 SPF)
Bit depth : 16 bits
Compression mode : Lossy
Stream size : 163 MiB (0%)
Title : AC3 2.0 @ 192 kbps - DVO, НТВ
Language : Russian
Service kind : Complete Main
Default : No
Forced : No

Audio #7
ID : 8
Format : AC-3
Format/Info : Audio Coding 3
Codec ID : A_AC3
Duration : 1 h 58 min
Bit rate mode : Constant
Bit rate : 192 kb/s
Channel(s) : 2 channels
Channel positions : Front: L R
Sampling rate : 48.0 kHz
Frame rate : 31.250 FPS (1536 SPF)
Bit depth : 16 bits
Compression mode : Lossy
Stream size : 163 MiB (0%)
Title : AC3 2.0 @ 192 kbps - DVO, Союз Видео
Language : Russian
Service kind : Complete Main
Default : No
Forced : No

Audio #8
ID : 9
Format : AC-3
Format/Info : Audio Coding 3
Codec ID : A_AC3
Duration : 1 h 58 min
Bit rate mode : Constant
Bit rate : 192 kb/s
Channel(s) : 2 channels
Channel positions : Front: L R
Sampling rate : 48.0 kHz
Frame rate : 31.250 FPS (1536 SPF)
Bit depth : 16 bits
Compression mode : Lossy
Stream size : 163 MiB (0%)
Title : AC3 2.0 @ 192 kbps - DVO, Лазер Видео
Language : Russian
Service kind : Complete Main
Default : No
Forced : No

Audio #9
ID : 10
Format : DTS
Format/Info : Digital Theater Systems
Format profile : MA / Core
Codec ID : A_DTS
Duration : 1 h 58 min
Bit rate mode : Variable / Constant
Bit rate : 3 448 kb/s / 1 509 kb/s
Channel(s) : 6 channels
Channel positions : Front: L C R, Side: L R, LFE
Sampling rate : 48.0 kHz
Frame rate : 93.750 FPS (512 SPF)
Bit depth : 24 bits
Compression mode : Lossless / Lossy
Stream size : 2.86 GiB (5%)
Title : DTS-HD MA 5.1 @ 3448 kbps - AVO, Г. Либергал
Language : Russian
Default : No
Forced : No

Audio #10
ID : 11
Format : DTS
Format/Info : Digital Theater Systems
Format profile : MA / Core
Codec ID : A_DTS
Duration : 1 h 58 min
Bit rate mode : Variable / Constant
Bit rate : 3 463 kb/s / 1 509 kb/s
Channel(s) : 6 channels
Channel positions : Front: L C R, Side: L R, LFE
Sampling rate : 48.0 kHz
Frame rate : 93.750 FPS (512 SPF)
Bit depth : 24 bits
Compression mode : Lossless / Lossy
Stream size : 2.87 GiB (5%)
Title : DTS-HD MA 5.1 @ 3463 kbps - AVO, Ю. Сербин
Language : Russian
Default : No
Forced : No

Audio #11
ID : 12
Format : DTS
Format/Info : Digital Theater Systems
Format profile : MA / Core
Codec ID : A_DTS
Duration : 1 h 58 min
Bit rate mode : Variable / Constant
Bit rate : 3 436 kb/s / 1 509 kb/s
Channel(s) : 6 channels
Channel positions : Front: L C R, Side: L R, LFE
Sampling rate : 48.0 kHz
Frame rate : 93.750 FPS (512 SPF)
Bit depth : 24 bits
Compression mode : Lossless / Lossy
Stream size : 2.85 GiB (5%)
Title : DTS-HD MA 5.1 @ 3436 kbps - AVO, Ю. Живов
Language : Russian
Default : No
Forced : No

Audio #12
ID : 13
Format : DTS
Format/Info : Digital Theater Systems
Format profile : MA / Core
Codec ID : A_DTS
Duration : 1 h 58 min
Bit rate mode : Variable / Constant
Bit rate : 3 461 kb/s / 1 509 kb/s
Channel(s) : 6 channels
Channel positions : Front: L C R, Side: L R, LFE
Sampling rate : 48.0 kHz
Frame rate : 93.750 FPS (512 SPF)
Bit depth : 24 bits
Compression mode : Lossless / Lossy
Stream size : 2.87 GiB (5%)
Title : DTS-HD MA 5.1 @ 3461 kbps - AVO, А. Гаврилов
Language : Russian
Default : No
Forced : No

Audio #13
ID : 14
Format : DTS
Format/Info : Digital Theater Systems
Format profile : MA / Core
Codec ID : A_DTS
Duration : 1 h 58 min
Bit rate mode : Variable / Constant
Bit rate : 3 467 kb/s / 1 509 kb/s
Channel(s) : 6 channels
Channel positions : Front: L C R, Side: L R, LFE
Sampling rate : 48.0 kHz
Frame rate : 93.750 FPS (512 SPF)
Bit depth : 24 bits
Compression mode : Lossless / Lossy
Stream size : 2.88 GiB (5%)
Title : DTS-HD MA 5.1 @ 3467 kbps - AVO, А. Михалев
Language : Russian
Default : No
Forced : No

Audio #14
ID : 15
Format : AC-3
Format/Info : Audio Coding 3
Codec ID : A_AC3
Duration : 1 h 58 min
Bit rate mode : Constant
Bit rate : 384 kb/s
Channel(s) : 6 channels
Channel positions : Front: L C R, Side: L R, LFE
Sampling rate : 48.0 kHz
Frame rate : 31.250 FPS (1536 SPF)
Bit depth : 16 bits
Compression mode : Lossy
Stream size : 326 MiB (1%)
Title : AC3 5.1 @ 384 kbps - DVO, 1+1
Language : Ukrainian
Service kind : Complete Main
Default : No
Forced : No

Audio #15
ID : 16
Format : DTS
Format/Info : Digital Theater Systems
Format profile : MA / Core
Codec ID : A_DTS
Duration : 1 h 58 min
Bit rate mode : Variable / Constant
Bit rate : 3 948 kb/s / 1 509 kb/s
Channel(s) : 6 channels
Channel positions : Front: L C R, Side: L R, LFE
Sampling rate : 48.0 kHz
Frame rate : 93.750 FPS (512 SPF)
Bit depth : 24 bits
Compression mode : Lossless / Lossy
Stream size : 3.28 GiB (6%)
Title : DTS-HD MA 5.1 @ 3948 kbps - Original
Language : English
Default : No
Forced : No

Text #1
ID : 17
Format : UTF-8
Codec ID : S_TEXT/UTF8
Codec ID/Info : UTF-8 Plain Text
Duration : 1 h 52 min
Bit rate : 81 b/s
Count of elements : 1114
Stream size : 67.3 KiB (0%)
Title : R5
Language : Russian
Default : No
Forced : No

Text #2
ID : 18
Format : UTF-8
Codec ID : S_TEXT/UTF8
Codec ID/Info : UTF-8 Plain Text
Duration : 1 h 50 min
Bit rate : 86 b/s
Count of elements : 952
Stream size : 69.6 KiB (0%)
Title : Киномания
Language : Russian
Default : No
Forced : No

Text #3
ID : 19
Format : UTF-8
Codec ID : S_TEXT/UTF8
Codec ID/Info : UTF-8 Plain Text
Duration : 1 h 50 min
Bit rate : 73 b/s
Count of elements : 1097
Stream size : 59.3 KiB (0%)
Title : Позитив
Language : Russian
Default : No
Forced : No

Text #4
ID : 20
Format : UTF-8
Codec ID : S_TEXT/UTF8
Codec ID/Info : UTF-8 Plain Text
Duration : 1 h 58 min
Bit rate : 77 b/s
Count of elements : 1116
Stream size : 67.5 KiB (0%)
Language : Ukrainian
Default : No
Forced : No

Text #5
ID : 21
Format : UTF-8
Codec ID : S_TEXT/UTF8
Codec ID/Info : UTF-8 Plain Text
Duration : 1 h 50 min
Bit rate : 54 b/s
Count of elements : 1264
Stream size : 43.7 KiB (0%)
Language : English
Default : No
Forced : No

Text #6
ID : 22
Format : UTF-8
Codec ID : S_TEXT/UTF8
Codec ID/Info : UTF-8 Plain Text
Duration : 1 h 52 min
Bit rate : 60 b/s
Count of elements : 1469
Stream size : 50.1 KiB (0%)
Title : SDN
Language : English
Default : No
Forced : No

Menu
00:00:00.000 : en:
00:08:30.259 : en:
00:20:55.796 : en:
00:31:54.329 : en:
00:38:39.442 : en:
00:46:50.766 : en:
00:50:02.541 : en:
00:59:46.082 : en:
01:05:05.192 : en:
01:18:40.006 : en:
01:25:24.285 : en:
01:32:04.769 : en:
01:36:42.213 : en:
01:40:45.914 : en:
01:50:42.761 : en:

Дополнительная информация:

Источник: Silence.of.the.Lambs.1991.REMASTERED.1080p.BluRay.AVC.DTS-HD.MA.5.1-CiNEMATiC
Дорожки 1-5 7-13 из раздачи FILVOVAN за что ему спасибо.
За дорогу НТВ без шумодава спасибо migorr
Украинские звук и субтитры Гуртом

Награды и номинации:

Оскар, 1992 год
Победитель (5):


Лучший фильм
Лучшая мужская роль ( Энтони Хопкинс )
Лучшая женская роль ( Джоди Фостер )
Лучший режиссер ( Джонатан Демме )
Лучший адаптированный сценарий

Номинации (2):

Лучший звук
Лучший монтаж

Золотой глобус, 1992 год
Победитель (1):


Лучшая женская роль (драма) ( Джоди Фостер )

Номинации (4):

Лучший фильм (драма)
Лучшая мужская роль (драма) (Энтони Хопкинс)
Лучший режиссер (Джонатан Демме)
Лучший сценарий

Британская академия, 1992 год
Победитель (2):


Лучшая мужская роль ( Энтони Хопкинс )
Лучшая женская роль ( Джоди Фостер )

Номинации (7):


Лучший фильм
Лучший режиссер (Джонатан Демме)
Лучший адаптированный сценарий
Лучшая работа оператора
Лучший звук
Лучший монтаж
Лучший саундтрек

Сезар, 1992 год
Номинации (1):


Лучший фильм на иностранном языке

Сатурн, 1992 год
Победитель (4):


Лучший фильм ужасов
Лучший актер ( Энтони Хопкинс )
Лучший сценарий
Лучший грим

Номинации (4):

Лучший режиссер (Джонатан Демме)
Лучшая актриса (Джоди Фостер)
Лучшие костюмы
Лучшая музыка

Берлинский кинофестиваль, 1991 год
Победитель (1):


Серебряный Медведь за лучшую режиссерскую работу ( Джонатан Демме )

Номинации (1):

Золотой Медведь
Скриншоты:

Дополнительные скриншоты:




Сравнение:

MPEG-4 AVC 34633 kbps ............... MPEG-2 19557 kbps












Все одноименные релизы в Клубе

Смотреть Online

http://moonwalk.cc/video/26cb0c62ae68b50306dc7aa66a2fdfd9/iframe
Детали торрента:
Название:Молчание ягнят / The Silence of the Lambs (1991) BDRemux [H.264/1080p]
Дата добавления:13 Фев 2018 12:50:57
Размер:54,2 GB
Раздают:2
Качают:6
Форум:Зарубежная Классика (HD)

создание сайтов All rights reserved © 2015-2018