TORRENTS43.COM

Скачать Тайна 7 сестер / Seven Sisters (2017) UHD BDRemux [H.265/2160p] [4K, HDR, 10-bit]


Тайна 7 сестер / Seven Sisters (2017) UHD BDRemux [H.265/2160p] [4K, HDR, 10-bit] «Что случилось с Понедельник?»
Производство: Великобритания, Франция, Бельгия / Nexus Factory
Жанр: фантастика, боевик, триллер, драма, криминал, детектив, приключения

Режиссер: Томми Виркола
Продюсер: Раффаэлла Де Лаурентис, Фабрис Джанферми, Филипп Руссле
Актеры: Нуми Рапас, Марван Кензари, Уиллем Дефо, Роберт Вагнер, Гленн Клоуз, Лара Дэкаро, Пол Сверре Валхейм Хаген, Адетомива Едун, Кристиан Рубек

Описание:
В мире, где семейным парам разрешено иметь только одного ребенка, рождается семь сестер-близняшек. Родители решают сохранить всех и дают малышкам имена в честь дней недели. Так девочки и появляются на людях — каждая в свой день. Но однажды Понедельник пропадает…


Возраст: 16+ (зрителям, достигшим 16 лет)
Дата мировой премьеры: 6 августа 2017
Премьера (РФ): 31 августа 2017, «MEGOGO Distribution»
Релиз на Blu-ray/DVD: 22 января 2018, «НД Плэй»


Релиз от: Ivantsov
Продолжительность: 02:03:19
Качество: UHD BDRemux (HDR)
Перевод: Дублированный (Лицензия BD RUS), Авторский (Ю.Живов)
Субтитры: Русские (Full), английские (Full)

Видео: H.265/HEVC, 3840x2160, (16:9), 72.0 Mb/s, 24.000 fps
Аудио 1: AC3, 6 ch, 640 kbps - Русский, Дубляж
Аудио 2: DTS-HD MA, 6 ch, 3072 kbps - Русский, Дубляж
Аудио 3: DTS-HD MA, 6 ch, 2388 kbps - Русский, Ю.Живов
Аудио 4: AC3, 2 ch, 192 kbps - Украинский
Аудио 5: DTS-HD MA, 6 ch, 3198 kbps - Английский
Аудио 6: DTS, 6 ch, 1509 kbps - Английский

Диск на Blu-ray.com
Просмотр 4K HDR-контента на ПК

Mediainfo:

General
Unique ID : 231619422443907375998071171215250509953 (0xAE4047341809CA2322747721EA755081)
Complete name : What.Happened.to.Monday.2017.2160p.BluRay.REMUX.HEVC.HDR.DTS-HD.MA.5.1.IVA(2xRUS.UKR.ENG).mkv
Format : Matroska
Format version : Version 4 / Version 2
File size : 71.6 GiB
Duration : 2 h 3 min
Overall bit rate : 83.0 Mb/s
Movie name : What.Happened.to.Monday.2017.2160p.BluRay.REMUX.HEVC.HDR.DTS-HD.MA.5.1.IVA(2xRUS.UKR.ENG)
Encoded date : UTC 2018-02-08 10:53:23
Writing application : mkvmerge v19.0.0 ('Brave Captain') 64-bit
Writing library : libebml v1.3.5 + libmatroska v1.4.8
Cover : Yes
Attachments : Cover.jpg / cover

Video
ID : 1
Format : HEVC
Format/Info : High Efficiency Video Coding
Format profile : Main 10@L5.1@High
Codec ID : V_MPEGH/ISO/HEVC
Duration : 2 h 3 min
Bit rate : 72.0 Mb/s
Width : 3 840 pixels
Height : 2 160 pixels
Display aspect ratio : 16:9
Frame rate mode : Constant
Frame rate : 24.000 FPS
Color space : YUV
Chroma subsampling : 4:2:0 (Type 2)
Bit depth : 10 bits
Bits/(Pixel*Frame) : 0.362
Stream size : 62.1 GiB (87%)
Title : What.Happened.to.Monday.2017.2160p.BluRay.REMUX.HEVC.HDR
Writing library : ATEME Titan File 3.8.0 (4.8.0.0)
Default : Yes
Forced : No
Color range : Limited
Color primaries : BT.2020
Transfer characteristics : SMPTE ST 2084
Matrix coefficients : BT.2020 non-constant
Mastering display color primaries : R: x=0.708000 y=0.292000, G: x=0.170000 y=0.797000, B: x=0.131000 y=0.046000, White point: x=0.312700 y=0.329000
Mastering display luminance : min: 0.0000 cd/m2, max: 1000.0000 cd/m2
Maximum Content Light Level : 1000 cd/m2
Maximum Frame-Average Light Level : 188 cd/m2

Audio #1
ID : 2
Format : AC-3
Format/Info : Audio Coding 3
Format settings, Endianness : Big
Codec ID : A_AC3
Duration : 2 h 3 min
Bit rate mode : Constant
Bit rate : 640 kb/s
Channel(s) : 6 channels
Channel positions : Front: L C R, Side: L R, LFE
Sampling rate : 48.0 kHz
Frame rate : 31.250 FPS (1536 SPF)
Bit depth : 16 bits
Compression mode : Lossy
Stream size : 564 MiB (1%)
Title : | Дублированный, BD RUS |
Language : Russian
Service kind : Complete Main
Default : Yes
Forced : No

Audio #2
ID : 3
Format : DTS
Format/Info : Digital Theater Systems
Format profile : MA / Core
Mode : 16
Format settings, Endianness : Big
Codec ID : A_DTS
Duration : 2 h 3 min
Bit rate mode : Variable / Constant
Bit rate : 3 072 kb/s / 1 509 kb/s
Channel(s) : 6 channels
Channel positions : Front: L C R, Side: L R, LFE
Sampling rate : 48.0 kHz
Frame rate : 93.750 FPS (512 SPF)
Bit depth : 24 bits
Compression mode : Lossless / Lossy
Stream size : 2.63 GiB (4%)
Title : | Дублированный, BD RUS |
Language : Russian
Default : No
Forced : No

Audio #3
ID : 4
Format : DTS
Format/Info : Digital Theater Systems
Format profile : MA / Core
Mode : 16
Format settings, Endianness : Big
Codec ID : A_DTS
Duration : 2 h 3 min
Bit rate mode : Variable / Constant
Bit rate : 2 388 kb/s / 1 509 kb/s
Channel(s) : 6 channels
Channel positions : Front: L C R, Side: L R, LFE
Sampling rate : 48.0 kHz
Frame rate : 93.750 FPS (512 SPF)
Bit depth : 16 bits
Compression mode : Lossless / Lossy
Stream size : 2.06 GiB (3%)
Title : | Авторский, Ю. Живов |
Language : Russian
Default : No
Forced : No

Audio #4
ID : 5
Format : AC-3
Format/Info : Audio Coding 3
Format settings, Endianness : Big
Codec ID : A_AC3
Duration : 2 h 3 min
Bit rate mode : Constant
Bit rate : 192 kb/s
Channel(s) : 2 channels
Channel positions : Front: L R
Sampling rate : 48.0 kHz
Frame rate : 31.250 FPS (1536 SPF)
Bit depth : 16 bits
Compression mode : Lossy
Stream size : 169 MiB (0%)
Title : | Дублированный, UKR |
Language : Ukrainian
Service kind : Complete Main
Default : No
Forced : No

Audio #5
ID : 6
Format : DTS
Format/Info : Digital Theater Systems
Format profile : MA / Core
Mode : 16
Format settings, Endianness : Big
Codec ID : A_DTS
Duration : 2 h 3 min
Bit rate mode : Variable / Constant
Bit rate : 3 198 kb/s / 1 509 kb/s
Channel(s) : 6 channels
Channel positions : Front: L C R, Side: L R, LFE
Sampling rate : 48.0 kHz
Frame rate : 93.750 FPS (512 SPF)
Bit depth : 24 bits
Compression mode : Lossless / Lossy
Stream size : 2.76 GiB (4%)
Title : | Original |
Language : English
Default : No
Forced : No

Audio #6
ID : 7
Format : DTS
Format/Info : Digital Theater Systems
Mode : 16
Format settings, Endianness : Big
Codec ID : A_DTS
Duration : 2 h 3 min
Bit rate mode : Constant
Bit rate : 1 509 kb/s
Channel(s) : 6 channels
Channel positions : Front: L C R, Side: L R, LFE
Sampling rate : 48.0 kHz
Frame rate : 93.750 FPS (512 SPF)
Bit depth : 16 bits
Compression mode : Lossy
Stream size : 1.30 GiB (2%)
Title : | English |
Language : English
Default : No
Forced : No

Text #1
ID : 8
Format : UTF-8
Codec ID : S_TEXT/UTF8
Codec ID/Info : UTF-8 Plain Text
Duration : 1 h 56 min
Bit rate : 48 b/s
Count of elements : 963
Stream size : 41.1 KiB (0%)
Title : Full
Language : Russian
Default : No
Forced : No

Text #2
ID : 9
Format : UTF-8
Codec ID : S_TEXT/UTF8
Codec ID/Info : UTF-8 Plain Text
Duration : 1 h 56 min
Bit rate : 33 b/s
Count of elements : 903
Stream size : 28.5 KiB (0%)
Title : Full
Language : English
Default : No
Forced : No

Menu
00:00:00.000 : en: Chapter 1
00:09:13.667 : en: Chapter 2
00:20:16.792 : en: Chapter 3
00:29:12.333 : en: Chapter 4
00:40:32.000 : en: Chapter 5
00:51:51.750 : en: Chapter 6
00:58:04.792 : en: Chapter 7
01:14:19.833 : en: Chapter 8
01:22:25.000 : en: Chapter 9
01:32:37.958 : en: Chapter 10
01:42:29.792 : en: Chapter 11
01:49:55.875 : en: Chapter 12

Трейлер:

YouTube
Скриншоты:

Релизы фильма "Тайна 7 сестер / Seven Sisters" на NNM Club

Смотреть Online

http://moonwalk.cc/video/b60a901da2fe8aa8/iframe
Детали торрента:
Название:Тайна 7 сестер / Seven Sisters (2017) UHD BDRemux [H.265/2160p] [4K, HDR, 10-bit]
Дата добавления:13 Фев 2018 18:47:15
Размер:71,6 GB
Раздают:8
Качают:0
Форум:Новинки (HD, UHD)

All rights reserved © 2015-2018