TORRENTS43.COM

Скачать Тайна Коко / Coco (2017) BDRip [H.264]


Тайна Коко / Coco (2017) BDRip
Производство: США / Pixar Animation Studios, Walt Disney Pictures
Жанр: Мультфильм, мюзикл, фэнтези, комедия, детектив, приключения, семейный

Режиссер: Ли Анкрич, Эдриан Молина
Актеры: Энтони Гонсалес, Гаэль Гарсиа Берналь, Бенджамин Брэтт, Аланна Юбак, Рене Виктор, Хайме Камиль, Альфонсо Арау, Херберт Сигенса, Габриэль Иглесиас, Ломбардо Бойяр

Описание:
12-летний Мигель живет в мексиканской деревушке в семье сапожников и тайно мечтает стать музыкантом. Тайно — потому что в его семейном клане музыка считается проклятием. Когда-то его прадед оставил свою жену, прабабку Мигеля, ради мечты, которая теперь не дает спокойно жить Мигелю. С тех пор музыкальная тема в семье стала табу. Мигель обнаруживает, что между ним и его любимым певцом Эрнесто де ла Крусом, ныне покойным, существует некая — пока неназванная — связь. Паренек отправляется к своему кумиру в Страну Мертвых, где встречает души своих предков. Коко знакомится там с духом-трикстером по имени Эктор (в облике скелета), который становится его напарником-проводником. Вдвоем они отправляются на поиски де ла Круса.


Возраст: 12+ (зрителям, достигшим 12 лет)
Рейтинг MPAA: PG (рекомендуется присутствие родителей)
Дата мировой премьеры: 20 октября 2017
Премьера (РФ): 23 ноября 2017
Цифровой релиз: 16 февраля 2018
Релиз на Blu-ray/DVD: 20 марта 2018


Релиз от: stalkerok & New-Team
Продолжительность: 01:45:02
Качество видео: BDRip
Перевод: Дублированный (iTunes)
Субтитры: русские (форсированные, полные)

Видео: AVC, 927 kbps, 750x314 (2.40:1), 23,976 fps
Аудио: AAC, 64 kbps, 2 ch - русский

Исходник

Coco.2017.1080p.Blu-ray.AVC.DTS-HD.MA.7.1-nLiBRA

x264/MediaInfo



---[Information] [16.02.2018 18:21:55] x264 [info]: frame I:1339 Avg QP:18.11 size: 40383
---[Information] [16.02.2018 18:21:55] x264 [info]: frame P:37953 Avg QP:23.09 size: 10021
---[Information] [16.02.2018 18:21:55] x264 [info]: frame B:111805 Avg QP:24.62 size: 2646

Общее
Уникальный идентификатор : 251853925074958433072996622434200285426 (0xBD794D3516EC7400AD37EC4E447170F2)
Полное имя : M:\$new\Coco 2017\Coco.2017.BDRip-AVC.RUS..stalkerok.new-team.mkv
Формат : Matroska
Версия формата : Version 4 / Version 2
Размер файла : 746 Мбайт
Продолжительность : 1 ч. 45 м.
Общий поток : 993 Кбит/сек
Название фильма : Coco (2017) (Rip by stalkerok)
Дата кодирования : UTC 2018-02-16 15:37:58
Программа кодирования : mkvmerge v8.6.1 ('Flying') 64bit
Библиотека кодирования : libebml v1.3.3 + libmatroska v1.4.4

Видео
Идентификатор : 3
Формат : AVC
Формат/Информация : Advanced Video Codec
Профиль формата : High@L4.1
Параметр CABAC формата : Да
Параметр ReFrames формата : 12 кадров
Идентификатор кодека : V_MPEG4/ISO/AVC
Продолжительность : 1 ч. 45 м.
Битрейт : 927 Кбит/сек
Ширина : 750 пикселей
Высота : 314 пикселей
Соотношение сторон : 2,40:1
Режим частоты кадров : Постоянный
Частота кадров : 23,976 (24000/1001) кадра/сек
Цветовое пространство : YUV
Субдискретизация насыщенности : 4:2:0
Битовая глубина : 8 бит
Тип развёртки : Прогрессивная
Бит/(Пиксели*Кадры) : 0.164
Размер потока : 696 Мбайт (93%)
Заголовок : Coco (2017) (Rip by stalkerok)
Библиотека кодирования : x264 core 152 r2851kMod ba24899
Настройки программы : cabac=1 / ref=12 / deblock=1:-1:-1 / analyse=0x3:0x133 / me=umh / subme=11 / psy=1 / fade_compensate=0.00 / psy_rd=1.00:0.00 / mixed_ref=1 / me_range=32 / chroma_me=1 / trellis=2 / 8x8dct=1 / cqm=0 / deadzone=21,11 / fast_pskip=0 / chroma_qp_offset=-2 / threads=10 / lookahead_threads=2 / sliced_threads=0 / nr=0 / decimate=0 / interlaced=0 / bluray_compat=0 / constrained_intra=0 / bframes=16 / b_pyramid=2 / b_adapt=2 / b_bias=0 / direct=3 / weightb=1 / open_gop=0 / weightp=2 / keyint=240 / keyint_min=23 / scenecut=40 / intra_refresh=0 / rc_lookahead=60 / rc=2pass / mbtree=0 / bitrate=927 / ratetol=1.0 / qcomp=0.65 / qpmin=0 / qpmax=69 / qpstep=4 / cplxblur=20.0 / qblur=0.5 / vbv_maxrate=50000 / vbv_bufsize=62500 / nal_hrd=none / filler=0 / ip_ratio=1.40 / pb_ratio=1.30 / aq=3:0.93 / zones=138311,151096,q=36
Default : Да
Forced : Нет

Аудио
Идентификатор : 4
Формат : AAC
Формат/Информация : Advanced Audio Codec
Профиль формата : HE-AAC / LC
Идентификатор кодека : A_AAC
Продолжительность : 1 ч. 45 м.
Битрейт : 64,0 Кбит/сек
Каналы : 2 канала
Расположение каналов : Front: L R
Частота : 48,0 КГц / 24,0 КГц
Частота кадров : 23,438 кадра/сек (1024 spf)
Метод сжатия : С потерями
Задержка видео : 31 мс.
Размер потока : 48,1 Мбайт (6%)
Язык : Russian
Default : Да
Forced : Нет

Текст #1
Идентификатор : 1
Формат : UTF-8
Идентификатор кодека : S_TEXT/UTF8
Идентификатор кодека/Информация : UTF-8 Plain Text
Продолжительность : 2 с. 85 мс.
Битрейт : 356 бит/сек
Count of elements : 2
Размер потока : 93,0 байт (0%)
Заголовок : Forced
Язык : Russian
Default : Да
Forced : Нет

Текст #2
Идентификатор : 2
Формат : UTF-8
Идентификатор кодека : S_TEXT/UTF8
Идентификатор кодека/Информация : UTF-8 Plain Text
Продолжительность : 1 ч. 34 м.
Битрейт : 94 бит/сек
Count of elements : 1168
Размер потока : 65,7 Кбайт (0%)
Язык : Russian
Default : Нет
Forced : Нет

Меню
00:00:00.000 : en:Chapter 1
00:06:40.191 : en:Chapter 2
00:08:41.520 : en:Chapter 3
00:11:13.589 : en:Chapter 4
00:14:20.317 : en:Chapter 5
00:17:06.942 : en:Chapter 6
00:18:20.932 : en:Chapter 7
00:22:05.991 : en:Chapter 8
00:24:19.958 : en:Chapter 9
00:27:44.829 : en:Chapter 10
00:29:07.912 : en:Chapter 11
00:32:15.308 : en:Chapter 12
00:35:18.407 : en:Chapter 13
00:41:25.524 : en:Chapter 14
00:47:04.696 : en:Chapter 15
00:50:54.175 : en:Chapter 16
00:54:23.885 : en:Chapter 17
00:56:45.026 : en:Chapter 18
01:01:42.615 : en:Chapter 19
01:03:28.137 : en:Chapter 20
01:08:58.216 : en:Chapter 21
01:15:17.262 : en:Chapter 22
01:18:56.773 : en:Chapter 23
01:21:31.761 : en:Chapter 24
01:24:31.816 : en:Chapter 25
01:28:23.464 : en:Chapter 26
01:33:14.755 : en:Chapter 27
01:36:10.472 : en:Chapter 28

Скриншоты:


Все одноименные релизы в Клубе

Смотреть Online

http://moonwalk.cc/video/b2f02ad44c035c32/iframe
Детали торрента:
Название:Тайна Коко / Coco (2017) BDRip [H.264]
Дата добавления:16 Фев 2018 18:56:09
Размер:746 MB
Раздают:26
Качают:0
Форум:Зарубежные Мультфильмы (HD*Rip/LQ, DVDRip, SATRip, VHSRip)

All rights reserved © 2015-2018