TORRENTS43.COM

Скачать Яркость / Bright (2017) UHD WEB-DL [H.264/2160p] [4K, SDR, 8-bit]


Яркость / Bright (2017) UHD WEB-DL [H.264/2160p] [4K, SDR, 8-bit]
Производство: США / NetFlix
Жанр: фэнтези, боевик, триллер, криминал

Режиссер: Дэвид Эйр
Продюсер: Дэвид Эйр, Эрик Ньюман, Тед Сарандос
Актеры: Уилл Смит, Нуми Рапас, Джоэл Эдгертон, Люси Фрай, Джей Эрнандес, Эдгар Рамирес, Айк Баринхолц, Вероника Нго, Хэппи Андерсон, Брэд Уильям Хенке

Описание:
В альтернативном Лос-Анджелесе кого только не встретишь — бок о бок с людьми живут эльфы, орки и даже кентавры. Эльфы, правда, немного брезгуют всеми остальными, поэтому устроили себе отдельный район, куда въезд только по пропускам. А вот людям приходится терпеть грубых и склонных к преступлениям орков, те предпочитают селиться в криминальных гетто.

Патрульный полицейский Дэрил Ворд вынужден работать в паре с орком-полицейским Джакоби — та ещё невидаль. Как-то Дэрил даже схватил пулю из-за нерасторопности напарника, поэтому не слишком ему доверяет. Однажды их патруль прибывает на вызов и на месте преступления обнаруживает несколько трупов, явные следы использования магии, свидетельницу-эльфийку и некий артефакт. Поскольку теперь за ними начинает охоту полгорода, напарникам предстоит пересмотреть степень доверительности в своих отношениях.


Дата мировой премьеры: 22 декабря 2017

Релиз от: Lolyworlds
Продолжительность: 01:57:46
Качество: UHD WEB-DL
Перевод: Профессиональный (многоголосый закадровый) (NewStudio) (Присутствует ненормативная лексика)
Субтитры: Русские Форсированные (на язык эльфов и надписи), Английские, Французские

Видео: H.264/AVC, 3840x1608, (2.40:1), 27.5 Mb/s, 24.000 FPS
Аудио: AC3, 6 ch, 384 kbps - Русский
Аудио: E-AC-3+Atmos, 6 ch, 448 kbps - Английский
Аудио: AC3, 6 ch, 384 kbps - Французский

Mediainfo:

General
Unique ID : 244940693480349238369163771918426768186 (0xB845DC92F32EACD799207DD92AE7033A)
Complete name : Bright_RUS_MVO_ENG_FRE_SUB_2160p_UHD_4K_WEB-DL_Netflix_HHD.mkv
Format : Matroska
Format version : Version 4 / Version 2
File size : 23.6 GiB
Duration : 1 h 57 min
Overall bit rate : 28.7 Mb/s
Movie name : Bright RUS MVO ENG FRE SUB 2160p UHD 4K WEB-DL Netflix HHD
Encoded date : UTC 2018-01-14 19:04:21
Writing application : mkvmerge v15.0.0 ('Duel with the Devil') 64-bit
Writing library : libebml v1.3.5 + libmatroska v1.4.5

Video
ID : 1
Format : AVC
Format/Info : Advanced Video Codec
Format profile : High@L5.1
Format settings, CABAC : Yes
Format settings, RefFrames : 7 frames
Codec ID : V_MPEG4/ISO/AVC
Duration : 1 h 57 min
Bit rate : 27.5 Mb/s
Width : 3 840 pixels
Height : 1 608 pixels
Display aspect ratio : 2.40:1
Frame rate mode : Constant
Frame rate : 24.000 FPS
Color space : YUV
Chroma subsampling : 4:2:0
Bit depth : 8 bits
Scan type : Progressive
Bits/(Pixel*Frame) : 0.186
Stream size : 22.6 GiB (96%)
Title : Bright 2160p UHD WEB-DL Netflix
Writing library : x264 core 152 r2851kMod ba24899
Encoding settings : cabac=1 / ref=7 / deblock=1:-3:-3 / analyse=0x3:0x133 / me=umh / subme=10 / psy=1 / fade_compensate=0.00 / psy_rd=1.00:0.00 / mixed_ref=1 / me_range=48 / chroma_me=1 / trellis=2 / 8x8dct=1 / cqm=0 / deadzone=21,11 / fast_pskip=0 / chroma_qp_offset=-2 / threads=24 / lookahead_threads=4 / sliced_threads=0 / nr=0 / decimate=0 / interlaced=0 / bluray_compat=0 / constrained_intra=0 / bframes=8 / b_pyramid=2 / b_adapt=2 / b_bias=0 / direct=3 / weightb=1 / open_gop=0 / weightp=2 / keyint=250 / keyint_min=24 / scenecut=40 / intra_refresh=0 / rc=crf / mbtree=0 / crf=18.0000 / qcomp=0.60 / qpmin=0 / qpmax=69 / qpstep=4 / ip_ratio=1.30 / pb_ratio=1.20 / aq=3:0.80
Language : English
Default : Yes
Forced : Yes

Audio #1
ID : 2
Format : AC-3
Format/Info : Audio Coding 3
Format settings, Endianness : Big
Codec ID : A_AC3
Duration : 1 h 57 min
Bit rate mode : Constant
Bit rate : 384 kb/s
Channel(s) : 6 channels
Channel positions : Front: L C R, Side: L R, LFE
Sampling rate : 48.0 kHz
Frame rate : 31.250 FPS (1536 SPF)
Bit depth : 16 bits
Compression mode : Lossy
Stream size : 322 MiB (1%)
Title : RUS MVO AC3 DD5.1@384 kbps NewStudio
Language : Russian
Service kind : Complete Main
Default : Yes
Forced : Yes

Audio #2
ID : 3
Format : E-AC-3
Format/Info : Enhanced Audio Coding 3
Format profile : E-AC-3+Atmos / E-AC-3
Format settings, Endianness : Big
Codec ID : A_EAC3
Duration : 1 h 57 min
Bit rate mode : Constant
Bit rate : 448 kb/s
Channel(s) : 15 objects / 6 channels
Channel positions : 15 objects / Front: L C R, Side: L R, LFE
Sampling rate : 48.0 kHz
Frame rate : 187.500 FPS (256 SPF)
Compression mode : Lossy
Stream size : 376 MiB (2%)
Title : English E-AC3 @448 kbps
Language : English
Service kind : Complete Main
Default : No
Forced : No

Audio #3
ID : 4
Format : AC-3
Format/Info : Audio Coding 3
Format settings, Endianness : Big
Codec ID : A_AC3
Duration : 1 h 57 min
Bit rate mode : Constant
Bit rate : 384 kb/s
Channel(s) : 6 channels
Channel positions : Front: L C R, Side: L R, LFE
Sampling rate : 48.0 kHz
Frame rate : 31.250 FPS (1536 SPF)
Bit depth : 16 bits
Compression mode : Lossy
Stream size : 323 MiB (1%)
Title : French AC3 @384 kbps
Language : French
Service kind : Complete Main
Default : No
Forced : No

Text #1
ID : 5
Format : UTF-8
Codec ID : S_TEXT/UTF8
Codec ID/Info : UTF-8 Plain Text
Duration : 1 h 39 min
Bit rate : 4 b/s
Count of elements : 69
Stream size : 3.27 KiB (0%)
Title : Russian Forced
Language : Russian
Default : Yes
Forced : Yes

Text #2
ID : 6
Format : UTF-8
Codec ID : S_TEXT/UTF8
Codec ID/Info : UTF-8 Plain Text
Duration : 1 h 17 min
Bit rate : 2 b/s
Count of elements : 64
Stream size : 1.27 KiB (0%)
Title : English Forced
Language : English
Default : No
Forced : No

Text #3
ID : 7
Format : UTF-8
Codec ID : S_TEXT/UTF8
Codec ID/Info : UTF-8 Plain Text
Duration : 1 h 56 min
Bit rate : 63 b/s
Count of elements : 1704
Stream size : 53.8 KiB (0%)
Title : English
Language : English
Default : No
Forced : No

Text #4
ID : 8
Format : UTF-8
Codec ID : S_TEXT/UTF8
Codec ID/Info : UTF-8 Plain Text
Duration : 1 h 56 min
Bit rate : 74 b/s
Count of elements : 1978
Stream size : 63.4 KiB (0%)
Title : English SDH
Language : English
Default : No
Forced : No

Text #5
ID : 9
Format : UTF-8
Codec ID : S_TEXT/UTF8
Codec ID/Info : UTF-8 Plain Text
Duration : 1 h 56 min
Bit rate : 2 b/s
Count of elements : 91
Stream size : 2.30 KiB (0%)
Title : French Forced
Language : French
Default : No
Forced : No

Text #6
ID : 10
Format : UTF-8
Codec ID : S_TEXT/UTF8
Codec ID/Info : UTF-8 Plain Text
Duration : 1 h 56 min
Bit rate : 51 b/s
Count of elements : 1465
Stream size : 43.9 KiB (0%)
Title : French
Language : French
Default : No
Forced : No

Трейлер:

YouTube
Скриншоты:

Релизы фильма "Яркость / Bright" на NNM Club

Смотреть Online

http://moonwalk.cc/video/c0606ee120cd459a/iframe
Детали торрента:
Название:Яркость / Bright (2017) UHD WEB-DL [H.264/2160p] [4K, SDR, 8-bit]
Дата добавления:17 Фев 2018 08:33:43
Размер:23,6 GB
Раздают:31
Качают:0
Форум:Новинки (HD, UHD)

All rights reserved © 2015-2018