TORRENTS43.COM

Скачать Цепной пёс / Bullet Head (2017) HDRip [MVO]


Цепной пёс / Bullet Head (2017) HDRip
Производство: Болгария, США / Millennium Media
Жанр: Триллер, драма, криминал

Режиссер: Пол Солет
Актеры: Эдриан Броуди, Рори Калкин, Антонио Бандерас, Джон Малкович, Александра Дину, Кристина Сеговиа, Ори Феффер, Оуэн Дэвис, Велизар Бинев, Кит Д. Эванс

Описание:
Даже у самого верного дела возможны разные варианты завершения. Матерые преступники, пытаясь по наводке обчистить полицейский склад, оказываются в ловушке с разъяренным сторожевым псом по кличке ДеНиро. Счастливый финал кажется все более призрачным...


Возраст: 18+ (зрителям, достигшим 18 лет. запрещено для детей)
Рейтинг MPAA: R (лицам до 17 лет обязательно присутствие взрослого)
Дата мировой премьеры: 07.12.2017
Дата российской премьеры: 07.12.2017

Продолжительность: 01:34:17
Качество видео: HDRip
Перевод: Профессиональный многоголосый (Студия "Paradox" & Omskbird records)
Субтитры: Отсутствуют

Видео: MPEG4, XviD, 720x304, 23.976 fps, 1 866 Kbps
Аудио: AC-3, 48.0 KHz, 2 ch, 192 Kbps, CBR

MediaInfo:


Общее
Полное имя : E:\NNM\Цепной пёс\Bullet Head 2017 HDRip.avi
Формат : AVI
Формат/Информация : Audio Video Interleave
Размер файла : 1,36 Гбайт
Продолжительность : 1 ч. 34 м.
Общий поток : 2067 Кбит/сек
Программа кодирования : VirtualDubMod 1.5.10.3 | www.virtualdub-fr.org || (build 2550/release)
Библиотека кодирования : VirtualDubMod build 2550/release

Видео
Идентификатор : 0
Формат : MPEG-4 Visual
Профиль формата : Advanced Simple@L5
Настройки формата : BVOP1 / Custom Matrix
Параметр BVOP формата : 1
Параметр QPel формата : Нет
Параметр GMC формата : Без точки перехода
Параметр матрицы формата : Выборочная
Идентификатор кодека : XVID
Идентификатор кодека/Подсказка : XviD
Продолжительность : 1 ч. 34 м.
Битрейт : 1866 Кбит/сек
Ширина : 720 пикселей
Высота : 304 пикселя
Соотношение сторон : 2,35:1
Частота кадров : 23,976 (24000/1001) кадра/сек
Цветовое пространство : YUV
Субдискретизация насыщенности : 4:2:0
Битовая глубина : 8 бит
Тип развёртки : Прогрессивная
Метод сжатия : С потерями
Бит/(Пиксели*Кадры) : 0.356
Размер потока : 1,23 Гбайт (90%)
Библиотека кодирования : XviD 1.2.1 (UTC 2008-12-04)

Аудио
Идентификатор : 1
Формат : AC-3
Формат/Информация : Audio Coding 3
Идентификатор кодека : 2000
Продолжительность : 1 ч. 34 м.
Вид битрейта : Постоянный
Битрейт : 192 Кбит/сек
Каналы : 2 канала
Расположение каналов : Front: L R
Частота : 48,0 КГц
Частота кадров : 31,250 кадров/сек (1536 SPF)
Битовая глубина : 16 бит
Метод сжатия : С потерями
Размер потока : 129 Мбайт (9%)
Выравнивание : Разделение по промежуткам
Продолжительность промежутка : 42 мс. (1,00 видеокадр)
Время предзагрузки промежутка : 500 мс.
ServiceKind/String : Complete Main
Скриншоты:


Все одноименные релизы в Клубе
Детали торрента:
Название:Цепной пёс / Bullet Head (2017) HDRip [MVO]
Дата добавления:17 Фев 2018 21:33:17
Размер:1,36 GB
Раздают:23
Качают:6
Форум:Зарубежные Новинки (HD*Rip/LQ, DVDRip)

All rights reserved © 2015-2018