TORRENTS43.COM

Скачать МУЛЬТ в кино. Выпуск 67: Зимний карнавал (2018) WEB-DLRip [H.264/720p-LQ]


МУЛЬТ в кино. Выпуск 67: Зимний карнавал (2018) WEB-DLRip
Жанр: Анимационный сериал
Дата показа в кинотеатрах: 20.01.18 - 02.02.18
Производство: Россия (#мультвкино)

Режиссер: Александр Бубнов, Полина Грекова, Дмитрий Лазарев...
Продюсер: Иван Кудрявцев, Татьяна Цыварева

Описание:
Смотрите свежие эпизоды мультсериалов «Барбоскины», «Деревяшки», «Три кота», «Четверо в кубе», «Дракоша Тоша» и премьера, — «Летающие звери».


Возраст: 0+ (для любой зрительской аудитории)
Рейтинг MPAA: G (нет возрастных ограничений)

Релиз от: Natasha77
Продолжительность: ~ 00:39:00
Качество видео: WEB-DLRip
Перевод: Не требуется (русский)

Видео: AVC/H.264, 1280x720, ~1500 kbps
Аудио: AC3, 2 ch, 192 kbps

Mediainfo:

Код: выделить все

General
Unique ID                   : 195274612828194613614210332075770728313 (0x92E885BD7A315620D1FAFC9186274F79)
Complete name               : C:\МУЛЬТ в кино. Выпуск 67 - Зимний карнавал.mkv
Format                      : Matroska
Format version              : Version 4 / Version 2
File size                   : 370 MiB
Duration                    : 38 min 48 s
Overall bit rate            : 1 332 kb/s
Writing application         : Lavf57.71.100
Writing library             : Lavf57.71.100
ErrorDetectionType          : Per level 1

Video
ID                          : 1
Format                      : AVC
Format/Info                 : Advanced Video Codec
Format profile              : High@L3.1
Format settings             : CABAC / 4 Ref Frames
Format settings, CABAC      : Yes
Format settings, ReFrames   : 4 frames
Codec ID                    : V_MPEG4/ISO/AVC
Duration                    : 38 min 48 s
Bit rate                    : 1 114 kb/s
Width                       : 1 280 pixels
Height                      : 720 pixels
Display aspect ratio        : 16:9
Frame rate mode             : Constant
Frame rate                  : 25.000 FPS
Color space                 : YUV
Chroma subsampling          : 4:2:0
Bit depth                   : 8 bits
Scan type                   : Progressive
Bits/(Pixel*Frame)          : 0.048
Stream size                 : 309 MiB (84%)
Writing library             : x264 core 146 r2555 0c21480
Encoding settings           : cabac=1 / ref=3 / deblock=1:0:0 / analyse=0x3:0x133 / me=hex / subme=7 / psy=1 / psy_rd=1.00:0.00 / mixed_ref=1 / me_range=16 / chroma_me=1 / trellis=1 / 8x8dct=1 / cqm=0 / deadzone=21,11 / fast_pskip=1 / chroma_qp_offset=-2 / threads=3 / lookahead_threads=1 / sliced_threads=0 / nr=0 / decimate=1 / interlaced=0 / bluray_compat=0 / constrained_intra=0 / bframes=3 / b_pyramid=2 / b_adapt=1 / b_bias=0 / direct=1 / weightb=1 / open_gop=0 / weightp=2 / keyint=250 / keyint_min=25 / scenecut=40 / intra_refresh=0 / rc_lookahead=40 / rc=crf / mbtree=1 / crf=20.0 / qcomp=0.60 / qpmin=10 / qpmax=51 / qpstep=4 / ip_ratio=1.40 / aq=1:1.00
Default                     : Yes
Forced                      : No

Audio
ID                          : 2
Format                      : AC-3
Format/Info                 : Audio Coding 3
Codec ID                    : A_AC3
Duration                    : 38 min 48 s
Bit rate mode               : Constant
Bit rate                    : 192 kb/s
Channel(s)                  : 2 channels
Channel positions           : Front: L R
Sampling rate               : 44.1 kHz
Frame rate                  : 28.711 FPS (1536 SPF)
Bit depth                   : 16 bits
Compression mode            : Lossy
Delay relative to video     : -80 ms
Stream size                 : 53.3 MiB (14%)
Language                    : unknown
Service kind                : Complete Main
Default                     : Yes
Forced                      : No

Список/Описание серий:

Деревяшки
серия: Угощение

Поросёнок Хрю решил угостить друзей, он думает, что жёлуди любят все, и предлагает каждому из деревяшек корзину с желудями. Но оказывается, что Иго-го любит сладкие яблочки, Гав-гав – косточки, Мяу – рыбку, а Ду-ду – бананы. Теперь Хрю знает, что лучше всего угощать друзей не тем, что любишь сам, а тем, что им больше всего нравится.
Барбоскины
серия: Нянька

Зачем идти вместе со всеми по грибы, если можешь разучить на гитаре столько новых пассажей. А не нужно ли присмотреть за Малышом? Дружок остается за няньку, и начинается… «Дружок, посмотри тут», «Дружок, иди сюда…». Никакого покоя от ребёнка. Но Малыш доволен. Игра в няньки получилась замечательная!
Дракоша Тоша
серия: Пираты

Настоящий пират никогда ничем не делится. Звучит здорово! Няша и Яша решили стать пиратами, чтобы не делиться игрушкам. Наши герои узнают, что же бывает, если ничем ни с кем не делиться, оказавшись с помощью волшебных мыльных пузырей на корабле с самым вредным пиратом на свете!
Три кота
серия: У папы на работе

Однажды папа вернулся с работы очень уставший… Котята хотят играть, но папа уж очень устал. Котята не понимают, как же можно устать на кондитерской фабрике?! У папы же не работа, а просто праздник! У него наверняка все в шоколаде.
Четверо в кубе
серия: Кубо велосипед

Стасу подарили новый велосипед. Он рассказывает кубикам и Лере, что он крутой велогонщик. Кубики очень хотят увидеть трюки Страшнислава. Но для того, чтобы показывать трюки Стас просит построить ему настоящую гоночную трассу, сделать костюм гонщика и приз.
Летающие звери
серия: Джинн (Бухара)

Маленький джинн потерял маму и папу и, несмотря на всё своё всемогущество, сам не сможет найти родителей. Но мудрый кот Мустафа, поразмыслив и посоветовавшись с книгами, обязательно найдет решение.
Скриншоты:

МУЛЬТ в кино на NoNaMe Club
Детали торрента:
Название:МУЛЬТ в кино. Выпуск 67: Зимний карнавал (2018) WEB-DLRip [H.264/720p-LQ]
Дата добавления:24 Фев 2018 11:58:08
Размер:370 MB
Раздают:6
Качают:0
Форум:Отечественные Мультсериалы

All rights reserved © 2015-2018