TORRENTS43.COM

Скачать Слишком крута для тебя / She's Out of My League (2010) BDRip [H.264/1080p]


Слишком крута для тебя / She's Out of My League (2010) BDRip [H.264/1080p]
Производство: США DreamWorks SKG
Жанр: Мелодрама, Комедия

Режиссер: Джим Филд Смит / Jim Field Smith
Актеры: Джей Барушель, Элис Ив, ТиДжей Миллер, Майк Фогель, Нейт Торренс, Линдсэй Слоун, Кайл Борнхеймер, Джессика Ст. Клэр, Кристен Риттер, Дебра Джо Рапп

Описание:
Неуверенный в себе Кирк Кеттнер отвечает за безопасность на авиарейсах, точнее просит пассажиров перед полётом снимать свою обувь для досмотра. Однажды Кирку повезло встретить Молли и вопреки его ожиданиям, с этой умной и очаровательной девушкой у них возникли взаимные чувства. Вот только не стоило Кирку слушать советов семьи и друзей, считающих, что Молли слишком хороша для него.


Возраст: 16+ (зрителям, достигшим 16 лет)
Рейтинг MPAA: R (лицам до 17 лет обязательно присутствие взрослого)

Релиз от: ViSTA

Продолжительность: 01:44:32
Качество видео: BDRip
Перевод: Дублированный
Субтитры: русские, английские, французские, голландские, польские

Видео: AVC/H.264, 1920x816, ~12.3 Мбит/с
Аудио: Русский (AC3, 6 ch, 448 Кбит/с, 48 KHz)
Аудио2: Английский (DTS, 6 ch, 1536 Кбит/с, 48 KHz)

Mediainfo:


General
Unique ID : 211430545667536199628966453433153627729 (0x9F100ABA58BD7C36A0B482B566C42651)
Complete name : D:\Slishkom.kryta.dlja.tebja.2010.x264.BDRip(1080p).mkv
Format : Matroska
Format version : Version 2
File size : 10.4 GiB
Duration : 1 h 44 min
Overall bit rate : 14.3 Mb/s
Movie name : --SCHUMAHER--
Encoded date : UTC 2010-09-09 07:44:18
Writing application : mkvmerge v3.4.0 ('Rapunzel') сборка от May 15 2010 09:38:20
Writing library : libebml v0.8.0 + libmatroska v0.9.0

Video
ID : 1
Format : AVC
Format/Info : Advanced Video Codec
Format profile : High@L4.1
Format settings : CABAC / 5 Ref Frames
Format settings, CABAC : Yes
Format settings, ReFrames : 5 frames
Codec ID : V_MPEG4/ISO/AVC
Duration : 1 h 44 min
Bit rate : 12.3 Mb/s
Width : 1 920 pixels
Height : 816 pixels
Display aspect ratio : 2.35:1
Frame rate mode : Constant
Frame rate : 23.976 (24000/1001) FPS
Color space : YUV
Chroma subsampling : 4:2:0
Bit depth : 8 bits
Scan type : Progressive
Bits/(Pixel*Frame) : 0.329
Stream size : 8.80 GiB (84%)
Writing library : x264 core 100 r1659 57b2e56
Encoding settings : cabac=1 / ref=5 / deblock=1:-3:-3 / analyse=0x3:0x113 / me=umh / subme=10 / psy=1 / psy_rd=1.00:0.00 / mixed_ref=1 / me_range=32 / chroma_me=1 / trellis=2 / 8x8dct=1 / cqm=0 / deadzone=21,11 / fast_pskip=0 / chroma_qp_offset=-2 / threads=6 / sliced_threads=0 / nr=0 / decimate=1 / interlaced=0 / constrained_intra=0 / bframes=5 / b_pyramid=2 / b_adapt=2 / b_bias=0 / direct=3 / weightb=1 / open_gop=0 / weightp=2 / keyint=250 / keyint_min=25 / scenecut=40 / intra_refresh=0 / rc_lookahead=60 / rc=2pass / mbtree=0 / bitrate=12345 / ratetol=1.0 / qcomp=0.60 / qpmin=10 / qpmax=51 / qpstep=4 / cplxblur=20.0 / qblur=0.5 / vbv_maxrate=40000 / vbv_bufsize=30000 / ip_ratio=1.40 / pb_ratio=1.30 / aq=1:0.75 / nal_hrd=none
Language : English
Default : Yes
Forced : No

Audio #1
ID : 2
Format : AC-3
Format/Info : Audio Coding 3
Codec ID : A_AC3
Duration : 1 h 44 min
Bit rate mode : Constant
Bit rate : 448 kb/s
Channel(s) : 6 channels
Channel positions : Front: L C R, Side: L R, LFE
Sampling rate : 48.0 kHz
Frame rate : 31.250 FPS (1536 SPF)
Bit depth : 16 bits
Compression mode : Lossy
Stream size : 335 MiB (3%)
Language : Russian
Service kind : Complete Main
Default : Yes
Forced : No

Audio #2
ID : 3
Format : DTS
Format/Info : Digital Theater Systems
Codec ID : A_DTS
Duration : 1 h 44 min
Bit rate mode : Constant
Bit rate : 1 509 kb/s
Channel(s) : 6 channels
Channel positions : Front: L C R, Side: L R, LFE
Sampling rate : 48.0 kHz
Frame rate : 93.750 FPS (512 SPF)
Bit depth : 24 bits
Compression mode : Lossy
Stream size : 1.10 GiB (11%)
Language : English
Default : No
Forced : No

Text #1
ID : 4
Format : UTF-8
Codec ID : S_TEXT/UTF8
Codec ID/Info : UTF-8 Plain Text
Language : Russian
Default : No
Forced : No

Text #2
ID : 5
Format : UTF-8
Codec ID : S_TEXT/UTF8
Codec ID/Info : UTF-8 Plain Text
Language : English
Default : No
Forced : No

Text #3
ID : 6
Format : UTF-8
Codec ID : S_TEXT/UTF8
Codec ID/Info : UTF-8 Plain Text
Language : French
Default : No
Forced : No

Text #4
ID : 7
Format : UTF-8
Codec ID : S_TEXT/UTF8
Codec ID/Info : UTF-8 Plain Text
Language : Dutch
Default : No
Forced : No

Text #5
ID : 8
Format : UTF-8
Codec ID : S_TEXT/UTF8
Codec ID/Info : UTF-8 Plain Text
Language : Polish
Default : No
Forced : No

Menu
00:00:00.000 : en:00:00:00.000
00:03:29.835 : en:00:03:29.835
00:06:50.910 : en:00:06:50.910
00:11:51.753 : en:00:11:51.753
00:16:53.804 : en:00:16:53.804
00:22:41.610 : en:00:22:41.610
00:27:37.614 : en:00:27:37.614
00:35:42.849 : en:00:35:42.849
00:44:07.645 : en:00:44:07.645
00:51:58.240 : en:00:51:58.240
01:02:12.270 : en:01:02:12.270
01:07:22.622 : en:01:07:22.622
01:14:18.412 : en:01:14:18.412
01:22:37.411 : en:01:22:37.411
01:27:59.441 : en:01:27:59.441
01:34:14.065 : en:01:34:14.065
Скриншоты:



Смотреть Online

http://moonwalk.cc/video/664a66625b178b09325e6b84e6d604a6/iframe
Детали торрента:
Название:Слишком крута для тебя / She's Out of My League (2010) BDRip [H.264/1080p]
Дата добавления:01 Мар 2018 10:25:50
Размер:10,4 GB
Раздают:12
Качают:0
Форум:Зарубежные Фильмы (HD, UHD-LQ)

All rights reserved © 2015-2018