TORRENTS43.COM

Скачать Джуманджи: Зов джунглей / Jumanji: Welcome to the Jungle (2017) WEB-DL [H.264/720p-LQ]


Джуманджи: Зов джунглей / Jumanji: Welcome to the Jungle (2017) WEB-DL
Производство: США / Matt Tolmach Productions
Жанр: Фэнтези, боевик, комедия, приключения

Режиссер: Джейк Кэздан
Актеры: Дуэйн Джонсон, Кевин Харт, Джек Блэк, Карен Гиллан, Риз Дэрби, Бобби Каннавейл, Ник Джонас, Алекс Вулф, Сер’Дариус Блэйн, Мэдисон Исман

Описание:
Четверо подростков оказываются внутри игры «Джуманджи». Их ждет схватка с носорогами, черными мамбами, а на каждом шагу будет подстерегать бесконечная череда ловушек и головоломок. Чтобы пройти игру и остаться в живых, им придется перевоплотиться в персонажей игры: робкий и застенчивый Спенсер превращается в отважного и сильного исследователя, здоровяк Фридж — в коротышку, модница и красавица Беттани — в профессора, а неуклюжая и нескладная Марта становится бесстрашной и ловкой амазонкой. Друзьям придется привыкнуть к совершенно новым и таким непривычным для себя ролям и найти дорогу домой...


Возраст: 16+ (зрителям, достигшим 16 лет)
Рейтинг MPAA: PG-13 (детям до 13 лет просмотр нежелателен)
Дата мировой премьеры: 5 декабря 2017
Дата российской премьеры: 21 декабря 2017

Продолжительность: 01:59:01
Качество видео: WEB-DL
Перевод: Дублированный (iTunes)
Субтитры: Русские (Forced, Full), украинские (Full), английские (Full)

Видео: AVC, 1280x530, 4008 Kbps
Аудио #1: AC-3, 6 ch, 384 Kbps | Русский
Аудио #2: AAC LC, 2 ch | Украинский
Аудио #3: AC-3, 6 ch, 384 Kbps | Английский

MediaInfo:


Общее
Уникальный идентификатор : 319755121486970817510580216968074348544 (0xF08E98A95D404D5E3483FDCFD291C800)
Полное имя : E:\NNM\Джуманджи\Jumanji Welcome to the Jungle 2017 WEB-DL 720p-LQ.mkv
Формат : Matroska
Версия формата : Version 4 / Version 2
Размер файла : 4,08 Гбайт
Продолжительность : 1 ч. 59 м.
Общий поток : 4906 Кбит/сек
Дата кодирования : UTC 2018-03-05 20:00:55
Программа кодирования : mkvmerge v21.0.0 ('Tardigrades Will Inherit The Earth') 64-bit
Библиотека кодирования : libebml v1.3.5 + libmatroska v1.4.8

Видео
Идентификатор : 1
Формат : AVC
Формат/Информация : Advanced Video Codec
Профиль формата : Main@L3.1
Настройки формата : 2 Ref Frames
Параметр CABAC формата : Нет
Параметр RefFrames формата : 2 кадра
Идентификатор кодека : V_MPEG4/ISO/AVC
Продолжительность : 1 ч. 59 м.
Битрейт : 4008 Кбит/сек
Ширина : 1280 пикселей
Высота : 530 пикселей
Соотношение сторон : 2,40:1
Режим частоты кадров : Постоянный
Частота кадров : 23,976 кадра/сек
Цветовое пространство : YUV
Субдискретизация насыщенности : 4:2:0
Битовая глубина : 8 бит
Тип развёртки : Прогрессивная
Бит/(Пиксели*Кадры) : 0.246
Размер потока : 3,33 Гбайт (82%)
Язык : English
Default : Да
Forced : Нет
Цветовой диапазон : Limited
Основные цвета : BT.709
Характеристики трансфера : BT.709
Коэффициенты матрицы : BT.709

Аудио #1
Идентификатор : 2
Формат : AC-3
Формат/Информация : Audio Coding 3
Идентификатор кодека : A_AC3
Продолжительность : 1 ч. 59 м.
Вид битрейта : Постоянный
Битрейт : 384 Кбит/сек
Каналы : 6 каналов
Расположение каналов : Front: L C R, Side: L R, LFE
Частота : 48,0 КГц
Частота кадров : 31,250 кадров/сек (1536 SPF)
Битовая глубина : 16 бит
Метод сжатия : С потерями
Размер потока : 327 Мбайт (8%)
Заголовок : iTunes
Язык : Russian
ServiceKind/String : Complete Main
Default : Да
Forced : Нет

Аудио #2
Идентификатор : 3
Формат : AAC
Формат/Информация : Advanced Audio Codec
Профиль формата : LC
Идентификатор кодека : A_AAC-2
Продолжительность : 1 ч. 59 м.
Битрейт : 127 Кбит/сек
Каналы : 2 канала
Расположение каналов : Front: L R
Частота : 48,0 КГц
Частота кадров : 46,875 кадров/сек (1024 SPF)
Метод сжатия : С потерями
Размер потока : 108 Мбайт (3%)
Заголовок : iTunes
Язык : Ukrainian
Default : Нет
Forced : Нет

Аудио #3
Идентификатор : 4
Формат : AC-3
Формат/Информация : Audio Coding 3
Идентификатор кодека : A_AC3
Продолжительность : 1 ч. 59 м.
Вид битрейта : Постоянный
Битрейт : 384 Кбит/сек
Каналы : 6 каналов
Расположение каналов : Front: L C R, Side: L R, LFE
Частота : 48,0 КГц
Частота кадров : 31,250 кадров/сек (1536 SPF)
Битовая глубина : 16 бит
Метод сжатия : С потерями
Размер потока : 327 Мбайт (8%)
Заголовок : Original
Язык : English
ServiceKind/String : Complete Main
Default : Нет
Forced : Нет

Текст #1
Идентификатор : 5
Формат : UTF-8
Идентификатор кодека : S_TEXT/UTF8
Идентификатор кодека/Информация : UTF-8 Plain Text
Продолжительность : 1 ч. 55 м.
Битрейт : 0 бит/сек
ElementCount : 2
Размер потока : 110 байт (0%)
Заголовок : forced
Язык : Russian
Default : Да
Forced : Да

Текст #2
Идентификатор : 6
Формат : UTF-8
Идентификатор кодека : S_TEXT/UTF8
Идентификатор кодека/Информация : UTF-8 Plain Text
Продолжительность : 1 ч. 57 м.
Битрейт : 95 бит/сек
ElementCount : 1577
Размер потока : 82,2 Кбайт (0%)
Заголовок : full
Язык : Russian
Default : Нет
Forced : Нет

Текст #3
Идентификатор : 7
Формат : UTF-8
Идентификатор кодека : S_TEXT/UTF8
Идентификатор кодека/Информация : UTF-8 Plain Text
Продолжительность : 1 ч. 48 м.
Битрейт : 63 бит/сек
ElementCount : 1539
Размер потока : 50,9 Кбайт (0%)
Заголовок : full
Язык : English
Default : Нет
Forced : Нет

Текст #4
Идентификатор : 8
Формат : UTF-8
Идентификатор кодека : S_TEXT/UTF8
Идентификатор кодека/Информация : UTF-8 Plain Text
Продолжительность : 1 ч. 57 м.
Битрейт : 76 бит/сек
ElementCount : 1562
Размер потока : 66,4 Кбайт (0%)
Заголовок : full
Язык : Ukrainian
Default : Нет
Forced : Нет

Меню
00:00:00.000 : en:1
00:07:17.103 : en:2
00:17:14.991 : en:3
00:23:22.232 : en:4
00:29:23.967 : en:5
00:42:27.542 : en:6
00:47:10.156 : en:7
00:54:25.715 : en:8
01:03:19.831 : en:9
01:10:20.792 : en:10
01:15:50.663 : en:11
01:24:09.077 : en:12
01:28:19.284 : en:13
01:33:47.402 : en:14
01:42:21.873 : en:15
01:48:30.825 : en:16

avdump:


File: E:\NNM\Джуманджи\Jumanji Welcome to the Jungle 2017 WEB-DL 720p-LQ.mkv
Duration: 01:59:02 (7141.79)
Track #1: video
lang: Unknown (1)
codc: V_MPEG4/ISO/AVC -> H264/AVC (22)
reso: 1280x530 -> Unknown (aka not common)
fram: vfr
rate: 4008 kbps (4007.72)
dura: 01:59:02 (7141.68)
size: 3.33 GB (3577730787)
Track #2: audio (iTunes)
lang: rus -> Russian (15)
codc: A_AC3 -> AC3 (2)
chan: 6 -> 5.1 Surround
samp: 48000 Hz
rate: 384 kbps (384.04)
dura: 01:59:02 (7141.70)
size: 326.95 MB (342835378)
Track #3: audio (iTunes)
lang: ukr -> Unknown (1)
codc: A_AAC -> AAC (9)
chan: 2 -> Stereo
samp: 48000 Hz
rate: 127 kbps (127.25)
dura: 01:59:02 (7141.70)
size: 108.33 MB (113597414)
Track #4: audio (Original)
lang: Unknown (1)
codc: A_AC3 -> AC3 (2)
chan: 6 -> 5.1 Surround
samp: 48000 Hz
rate: 384 kbps (384.04)
dura: 01:59:02 (7141.70)
size: 326.95 MB (342835377)
Track #5: subtitles (forced)
lang: rus -> Russian (15)
type: S_TEXT/UTF8 -> SRT (3)
size: 110.00 B (110)
Track #6: subtitles (full)
lang: rus -> Russian (15)
type: S_TEXT/UTF8 -> SRT (3)
size: 82.17 KB (84146)
Track #7: subtitles (full)
lang: Unknown (1)
type: S_TEXT/UTF8 -> SRT (3)
size: 50.94 KB (52164)
Track #8: subtitles (full)
lang: ukr -> Unknown (1)
type: S_TEXT/UTF8 -> SRT (3)
size: 66.39 KB (67984)
Sizes: (check sanity)
disk: 4.08 GB (4379540425)
trac: 4.08 GB (4377203360) [based on track size]
bitr: 4.08 GB (4376997391) [based on bitrate]
tdif: 2.23 MB (2337065) 0.05%
bdif: 2.43 MB (2543033) 0.05%
Скриншоты:


Все одноименные релизы в Клубе

Смотреть Online

http://moonwalk.cc/video/57f98f854a8959a5/iframe
Детали торрента:
Название:Джуманджи: Зов джунглей / Jumanji: Welcome to the Jungle (2017) WEB-DL [H.264/720p-LQ]
Дата добавления:06 Мар 2018 00:28:02
Размер:4,08 GB
Раздают:50
Качают:4
Форум:Зарубежные Новинки (HD*Rip/LQ, DVDRip)

All rights reserved © 2015-2018