TORRENTS43.COM

Скачать Аутсайдер / The Outsider (2018) WEB-DLRip [H.264/720p-LQ] [MVO] [AD]


Аутсайдер / The Outsider (2018) WEB-DLRip
Производство: США / Linson Entertainment
Жанр: Триллер, драма, криминал, детектив

Режиссер: Мартин Зандвлиет
Актеры: Джаред Лето, Таданобу Асано, Киппэй Сина, Рори Кокрейн, Эмиль Хирш, Сиори Куцуна, Юрино, Нозоми де Ланкесэ, Кодзи Като, Сотаро Ясуда

Описание:
Япония после Второй мировой войны. Американского военнопленного освобождают благодаря помощи сокамерника, принадлежащего к якудза. Став свободным, солдат начинает завоевывать их уважение и возвращает свой долг в опасном криминальном мире.


Дата мировой премьеры: 9 марта 2018

Продолжительность: 02:00:38
Качество видео: WEB-DLRip (720p-LQ)
Перевод: Многоголосый закадровый, любительский (MUZOBOZ)
Субтитры: Отсутствуют
Реклама: Присутствуют вставки текстовой рекламы

Видео: AVC, 1280x536, 4 578 Kbps
Аудио: AC-3, 2 ch, 384 Kbps

MediaInfo:


Общее
Полное имя : E:\NNM\Аутсайдер\The Outsider 2018 WEB-DL 720p-LQ.mkv
Формат : Matroska
Версия формата : Version 2
Размер файла : 4,27 Гбайт
Продолжительность : 2 ч. 0 м.
Режим общего битрейта : Переменный
Общий поток : 5063 Кбит/сек
Программа кодирования : libmatroska 1.4.1

Видео
Идентификатор : 1
Формат : AVC
Формат/Информация : Advanced Video Codec
Профиль формата : High@L4.1
Настройки формата : CABAC / 4 Ref Frames
Параметр CABAC формата : Да
Параметр RefFrames формата : 4 кадра
Идентификатор кодека : V_MPEG4/ISO/AVC
Продолжительность : 2 ч. 0 м.
Вид битрейта : Переменный
Битрейт : 4578 Кбит/сек
Максимальный битрейт : 5100 Кбит/сек
Ширина : 1280 пикселей
Высота : 536 пикселей
Соотношение сторон : 2,40:1
Режим частоты кадров : Постоянный
Частота кадров : 23,976 (24000/1001) кадра/сек
Стандарт вещания : Component
Цветовое пространство : YUV
Субдискретизация насыщенности : 4:2:0
Битовая глубина : 8 бит
Тип развёртки : Прогрессивная
Бит/(Пиксели*Кадры) : 0.278
Размер потока : 3,86 Гбайт (90%)
Default : Нет
Forced : Нет
Цветовой диапазон : Limited
Основные цвета : BT.709
Характеристики трансфера : BT.709
Коэффициенты матрицы : BT.709

Аудио
Идентификатор : 2
Формат : AC-3
Формат/Информация : Audio Coding 3
Идентификатор кодека : A_AC3
Продолжительность : 2 ч. 0 м.
Вид битрейта : Постоянный
Битрейт : 384 Кбит/сек
Каналы : 2 канала
Расположение каналов : Front: L R
Частота : 48,0 КГц
Частота кадров : 31,250 кадров/сек (1536 SPF)
Битовая глубина : 16 бит
Метод сжатия : С потерями
Размер потока : 331 Мбайт (8%)
ServiceKind/String : Complete Main
Default : Нет
Forced : Нет
Скриншоты:


Все одноименные релизы в Клубе

Смотреть Online

http://moonwalk.cc/video/b2071979753a1c3e/iframe
Детали торрента:
Название:Аутсайдер / The Outsider (2018) WEB-DLRip [H.264/720p-LQ] [MVO] [AD]
Дата добавления:12 Мар 2018 01:39:14
Размер:4,27 GB
Раздают:36
Качают:1
Форум:Новинки с Рекламой

All rights reserved © 2015-2018