TORRENTS43.COM

Скачать Праздник разбитых сердец (2017) WEB-DLRip [H.264/720p-LQ]


Праздник разбитых сердец (2017) WEB-DLRip [H.264/720p-LQ]
Производство: Россия
Жанр: Мелодрама

Режиссер: Глеб Якубовский
Актеры: Евгения Осипова, Анна Казючиц, Алеся Пуховая, Алексей Демидов, Валентина Гарцуева, Александр Давыдов, Дмитрий Есеневич, Любовь Германова, Денис Паршин

Описание:
8 марта радиоведущую Таню Разумовскую бросает возлюбленный и по совместительству начальник Степан — у него появилась другая женщина. Выпив с горя, Таня говорит в эфире все, что думает о мужчинах, и предлагает всем брошенным девушкам встретиться вечером в ресторане...


Возраст: 12+ (зрителям, достигшим 12 лет)
Дата российской премьеры: 11 марта 2018

Релиз от: Алехаndr
Продолжительность: 01:33:26
Качество видео: WEB-DLRip
Перевод: Не требуется (русский)
Субтитры: Отсутствуют

Видео: AVC/H.264, 1280x720 (16:9), ~2570 Kbps
Аудио: AC3, 2 ch, 192 Kbps

Mediainfo:


Общее
Уникальный идентификатор : 31032445251820007556894155043922636018 (0x1758A1ADA422C4DDB464951F76B1ECF2)
Полное имя : G:\Праздник разбитых сердец (2017).by.Алехаndr.mkv
Формат : Matroska
Версия формата : Version 4 / Version 2
Размер файла : 1,80 Гбайт
Продолжительность : 1 ч. 33 м.
Общий поток : 2760 Кбит/сек
Программа кодирования : Lavf57.71.100
Библиотека кодирования : Lavf57.71.100
ErrorDetectionType : Per level 1

Видео
Идентификатор : 1
Формат : AVC
Формат/Информация : Advanced Video Codec
Профиль формата : High@L4
Настройки формата : CABAC / 4 Ref Frames
Параметр CABAC формата : Да
Параметр RefFrames формата : 4 кадра
Идентификатор кодека : V_MPEG4/ISO/AVC
Продолжительность : 1 ч. 33 м.
Битрейт : 2569 Кбит/сек
Ширина : 1280 пикселей
Высота : 720 пикселей
Соотношение сторон : 16:9
Режим частоты кадров : Постоянный
Частота кадров : 25,000 кадров/сек
Цветовое пространство : YUV
Субдискретизация насыщенности : 4:2:0
Битовая глубина : 8 бит
Тип развёртки : Прогрессивная
Бит/(Пиксели*Кадры) : 0.112
Размер потока : 1,64 Гбайт (91%)
Библиотека кодирования : x264 core 142
Настройки программы : cabac=1 / ref=3 / deblock=1:0:0 / analyse=0x3:0x113 / me=hex / subme=7 / psy=1 / psy_rd=1.00:0.00 / mixed_ref=1 / me_range=16 / chroma_me=1 / trellis=1 / 8x8dct=1 / cqm=0 / deadzone=21,11 / fast_pskip=1 / chroma_qp_offset=-2 / threads=48 / lookahead_threads=5 / sliced_threads=0 / nr=0 / decimate=1 / interlaced=0 / bluray_compat=0 / constrained_intra=0 / bframes=6 / b_pyramid=2 / b_adapt=1 / b_bias=0 / direct=1 / weightb=1 / open_gop=0 / weightp=2 / keyint=50 / keyint_min=26 / scenecut=0 / intra_refresh=0 / rc_lookahead=40 / rc=2pass / mbtree=1 / bitrate=2569 / ratetol=1.0 / qcomp=0.60 / qpmin=0 / qpmax=69 / qpstep=4 / cplxblur=20.0 / qblur=0.5 / vbv_maxrate=3854 / vbv_bufsize=10279 / nal_hrd=none / filler=0 / ip_ratio=1.40 / aq=1:1.00
Default : Да
Forced : Нет

Аудио
Идентификатор : 2
Формат : AC-3
Формат/Информация : Audio Coding 3
Идентификатор кодека : A_AC3
Продолжительность : 1 ч. 33 м.
Вид битрейта : Постоянный
Битрейт : 192 Кбит/сек
Каналы : 2 канала
Расположение каналов : Front: L R
Частота : 48,0 КГц
Частота кадров : 31,250 кадров/сек (1536 SPF)
Битовая глубина : 16 бит
Метод сжатия : С потерями
Задержка видео : -80 мс.
Размер потока : 128 Мбайт (7%)
Язык : Russian
ServiceKind/String : Complete Main
Default : Да
Forced : Нет
Скриншоты:


Все одноименные релизы в Клубе

Смотреть Online

http://37.220.36.15/video/72f121ae6c0ab1d6/iframe
Детали торрента:
Название:Праздник разбитых сердец (2017) WEB-DLRip [H.264/720p-LQ]
Дата добавления:12 Мар 2018 12:00:43
Размер:1,8 GB
Раздают:4
Качают:0
Форум:Отечественные Новинки (HD*Rip/LQ, DVDRip)

All rights reserved © 2015-2018