TORRENTS43.COM

Скачать Плохие ребята / The Bad Guys (2018) WEB-DLRip [H.264/720p-LQ] [MVO] [AD]


Плохие ребята / The Bad Guys (2018) WEB-DLRip
Производство: США / Resolute Productions
Жанр: Драма, комедия

Режиссер: Карлос Ринконес
Актеры: Глен Пауэлл, Мекенна Мелвин, Эрик Стоклин, Пол Яконо, Лукас Нир-Вербругге, Кит Ноббс, Аллегра Лучези

Описание:
Ненадолго вернувшись в дом детства, многообещающий режиссер встречается со своими повзрослевшими друзьми, ни один из которых не в курсе, что он собирается нажиться на детской травме, которая их и разделила много лет назад. Вместе они проводят выходные, полные алкоголя, воспоминаний и сожалений, и обнажают забытые раны, совершают новые ошибки, понимая, что последствия юности могут сказаться и во взрослой жизни.


Дата мировой премьеры: 16 февраля 2018

Продолжительность: 01:32:15
Качество видео: WEB-DLRip
Перевод: Многоголосый закадровый, любительский (Синема УС)
Субтитры: Отсутствуют
Реклама: Присутствуют вставки текстовой рекламы!

Видео: AVC, 1280x528, 4 498 Kbps
Аудио: AC-3, 48.0 KHz, 2 ch, 384 Kbps

MediaInfo:


Общее
Полное имя : E:\NNM\Плохие ребята\The Bad Guys 2018 WEB-DLRip 720p-LQ.mkv
Формат : Matroska
Версия формата : Version 2
Размер файла : 3,21 Гбайт
Продолжительность : 1 ч. 32 м.
Режим общего битрейта : Переменный
Общий поток : 4981 Кбит/сек
Программа кодирования : libmatroska 1.4.1

Видео
Идентификатор : 1
Формат : AVC
Формат/Информация : Advanced Video Codec
Профиль формата : High@L4.1
Настройки формата : CABAC / 4 Ref Frames
Параметр CABAC формата : Да
Параметр RefFrames формата : 4 кадра
Идентификатор кодека : V_MPEG4/ISO/AVC
Продолжительность : 1 ч. 32 м.
Вид битрейта : Переменный
Битрейт : 4498 Кбит/сек
Максимальный битрейт : 5000 Кбит/сек
Ширина : 1280 пикселей
Высота : 528 пикселей
Соотношение сторон : 2,40:1
Режим частоты кадров : Постоянный
Частота кадров : 23,976 (24000/1001) кадра/сек
Стандарт вещания : Component
Цветовое пространство : YUV
Субдискретизация насыщенности : 4:2:0
Битовая глубина : 8 бит
Тип развёртки : Прогрессивная
Бит/(Пиксели*Кадры) : 0.278
Размер потока : 2,90 Гбайт (90%)
Default : Нет
Forced : Нет
Цветовой диапазон : Limited
Основные цвета : BT.709
Характеристики трансфера : BT.709
Коэффициенты матрицы : BT.709

Аудио
Идентификатор : 2
Формат : AC-3
Формат/Информация : Audio Coding 3
Идентификатор кодека : A_AC3
Продолжительность : 1 ч. 32 м.
Вид битрейта : Постоянный
Битрейт : 384 Кбит/сек
Каналы : 2 канала
Расположение каналов : Front: L R
Частота : 48,0 КГц
Частота кадров : 31,250 кадров/сек (1536 SPF)
Битовая глубина : 16 бит
Метод сжатия : С потерями
Размер потока : 253 Мбайт (8%)
ServiceKind/String : Complete Main
Default : Нет
Forced : Нет
Скриншоты:


Все одноименные релизы в Клубе

Смотреть Online

http://moonwalk.cc/video/020f8d277187ec42/iframe
Детали торрента:
Название:Плохие ребята / The Bad Guys (2018) WEB-DLRip [H.264/720p-LQ] [MVO] [AD]
Дата добавления:12 Мар 2018 22:17:16
Размер:3,21 GB
Раздают:7
Качают:0
Форум:Новинки с Рекламой

All rights reserved © 2015-2018