TORRENTS43.COM

Скачать Плохие ребята / The Bad Guys (2018) WEB-DLRip [MVO] [AD]


Плохие ребята / The Bad Guys (2018) WEB-DLRip
Производство: США / Resolute Productions
Жанр: Драма, комедия

Режиссер: Карлос Ринконес
Актеры: Глен Пауэлл, Мекенна Мелвин, Эрик Стоклин, Пол Яконо, Лукас Нир-Вербругге, Кит Ноббс, Аллегра Лучези

Описание:
Ненадолго вернувшись в дом детства, многообещающий режиссер встречается со своими повзрослевшими друзьми, ни один из которых не в курсе, что он собирается нажиться на детской травме, которая их и разделила много лет назад. Вместе они проводят выходные, полные алкоголя, воспоминаний и сожалений, и обнажают забытые раны, совершают новые ошибки, понимая, что последствия юности могут сказаться и во взрослой жизни.


Дата мировой премьеры: 16 февраля 2018

Продолжительность: 01:32:15
Качество видео: WEB-DLRip
Перевод: Многоголосый закадровый, любительский (Синема УС)
Субтитры: Отсутствуют
Реклама: Присутствуют вставки текстовой рекламы!

Видео: MPEG4, XviD, 720x304, 1 613 Kbps
Аудио: AC-3, 48.0 KHz, 2 ch, 384 Kbps

MediaInfo:


Общее
Полное имя : E:\NNM\Плохие ребята\The Bad Guys 2018 WEB-DLRip.avi
Формат : AVI
Формат/Информация : Audio Video Interleave
Профиль формата : OpenDML
Размер файла : 1,29 Гбайт
Продолжительность : 1 ч. 32 м.
Общий поток : 2009 Кбит/сек

Видео
Идентификатор : 0
Формат : MPEG-4 Visual
Профиль формата : Advanced Simple@L5
Настройки формата : BVOP2
Параметр BVOP формата : 2
Параметр QPel формата : Нет
Параметр GMC формата : Без точки перехода
Параметр матрицы формата : Default (MPEG)
Идентификатор кодека : XVID
Идентификатор кодека/Подсказка : XviD
Продолжительность : 1 ч. 32 м.
Битрейт : 1613 Кбит/сек
Ширина : 720 пикселей
Высота : 304 пикселя
Соотношение сторон : 2,35:1
Частота кадров : 23,976 (24000/1001) кадра/сек
Цветовое пространство : YUV
Субдискретизация насыщенности : 4:2:0
Битовая глубина : 8 бит
Тип развёртки : Прогрессивная
Метод сжатия : С потерями
Бит/(Пиксели*Кадры) : 0.307
Размер потока : 1,04 Гбайт (80%)
Библиотека кодирования : XviD 1.2.1 (UTC 2008-12-04)

Аудио
Идентификатор : 1
Формат : AC-3
Формат/Информация : Audio Coding 3
Идентификатор кодека : 2000
Продолжительность : 1 ч. 32 м.
Вид битрейта : Постоянный
Битрейт : 384 Кбит/сек
Каналы : 2 канала
Расположение каналов : Front: L R
Частота : 48,0 КГц
Частота кадров : 31,250 кадров/сек (1536 SPF)
Битовая глубина : 16 бит
Метод сжатия : С потерями
Размер потока : 253 Мбайт (19%)
Выравнивание : Соединение по промежуткам
Продолжительность промежутка : 32 мс. (0,77 видеокадр)
ServiceKind/String : Complete Main
Скриншоты:


Все одноименные релизы в Клубе

Смотреть Online

http://moonwalk.cc/video/020f8d277187ec42/iframe
Детали торрента:
Название:Плохие ребята / The Bad Guys (2018) WEB-DLRip [MVO] [AD]
Дата добавления:12 Мар 2018 22:27:59
Размер:1,29 GB
Раздают:11
Качают:1
Форум:Новинки с Рекламой

All rights reserved © 2015-2018