TORRENTS43.COM

Скачать Аннигиляция / Annihilation (2018) WEBRip [H.264/1080p] [MVO] [AD]


Аннигиляция / Annihilation (2018) WEBRip
Производство: Великобритания / США, Sepia Films
Жанр: Фантастика, фэнтези, ужасы, триллер, драма, детектив, приключения

Режиссер: Алекс Гарленд
Актеры: Натали Портман, Дженнифер Джейсон Ли, Оскар Айзек, Тесса Томпсон, Джина Родригез, Тува Новотны, Бенедикт Вонг, Дэвид Гяси, Соноя Мидзуно, Джон Шваб

Описание:
Профессор биологии Лина уже год страдает от потери мужа-военного. Кейн отправился на очередное секретное задание, но так и не вернулся — жив ли, погиб — женщина не знает, пока однажды дезориентированный и слегка бледный супруг внезапно не появляется на пороге их спальни. Радость длится недолго — у мужчины начинаются судороги и множественные кровотечения, а по дороге в больницу машину скорой помощи тормозят военные. Лина приходит в себя на секретной базе рядом с той самой загадочной зоной, куда уже отправлялись многочисленные экспедиции, но вернулся, оказывается, только один человек — её Кейн.


Рейтинг MPAA: R (лицам до 17 лет обязательно присутствие взрослого)
Дата мировой премьеры: 23 февраля 2018

Продолжительность: 01:54:59
Качество видео: WEB-DLRip
Перевод: Многоголосый закадровый, любительский (MUZOBOZ)
Субтитры: Отсутствуют
Реклама: Присутствуют вставки текстовой рекламы!

Видео: AVC, 1920x804, 4973 Kbps
Аудио: AC-3, 2 ch, 384 Kbps

MediaInfo:


Общее
Полное имя : E:\NNM\Аннигиляция\Annihilation 2018 WEB-DLRip 1080p-LQ.mkv
Формат : Matroska
Версия формата : Version 2
Размер файла : 4,39 Гбайт
Продолжительность : 1 ч. 54 м.
Режим общего битрейта : Переменный
Общий поток : 5465 Кбит/сек
Программа кодирования : libmatroska 1.4.1

Видео
Идентификатор : 1
Формат : AVC
Формат/Информация : Advanced Video Codec
Профиль формата : High@L4.1
Настройки формата : CABAC / 4 Ref Frames
Параметр CABAC формата : Да
Параметр RefFrames формата : 4 кадра
Идентификатор кодека : V_MPEG4/ISO/AVC
Продолжительность : 1 ч. 54 м.
Вид битрейта : Переменный
Битрейт : 4973 Кбит/сек
Максимальный битрейт : 5700 Кбит/сек
Ширина : 1920 пикселей
Высота : 804 пикселя
Соотношение сторон : 2,40:1
Режим частоты кадров : Постоянный
Частота кадров : 23,976 (24000/1001) кадра/сек
Стандарт вещания : Component
Цветовое пространство : YUV
Субдискретизация насыщенности : 4:2:0
Битовая глубина : 8 бит
Тип развёртки : Прогрессивная
Бит/(Пиксели*Кадры) : 0.134
Размер потока : 3,99 Гбайт (91%)
Default : Нет
Forced : Нет
Цветовой диапазон : Limited
Основные цвета : BT.709
Характеристики трансфера : BT.709
Коэффициенты матрицы : BT.709

Аудио
Идентификатор : 2
Формат : AC-3
Формат/Информация : Audio Coding 3
Идентификатор кодека : A_AC3
Продолжительность : 1 ч. 54 м.
Вид битрейта : Постоянный
Битрейт : 384 Кбит/сек
Каналы : 2 канала
Расположение каналов : Front: L R
Частота : 48,0 КГц
Частота кадров : 31,250 кадров/сек (1536 SPF)
Битовая глубина : 16 бит
Метод сжатия : С потерями
Размер потока : 316 Мбайт (7%)
ServiceKind/String : Complete Main
Default : Нет
Forced : Нет
Скриншоты:


Все одноименные релизы в Клубе

Смотреть Online

http://moonwalk.cc/video/d4740e76599a17db/iframe
Детали торрента:
Название:Аннигиляция / Annihilation (2018) WEBRip [H.264/1080p] [MVO] [AD]
Дата добавления:13 Мар 2018 13:31:23
Размер:4,39 GB
Раздают:51
Качают:2
Форум:Архив неактуальных Экранок и видео с Рекламой

All rights reserved © 2015-2018