TORRENTS43.COM

Скачать Выжженная земля / Scorched Earth (2017) HDRip [MVO] [AD]


Выжженная земля / Scorched Earth (2017) HDRip
Производство: Канада / Сша Lighthouse Pictures
Жанр: Фантастика, боевик

Режиссер: Питер Хауит
Актеры: Джина Карано, Сара Троер, Джон Ханна, Алиша Ньютон, Стефани Беннетт, Райан Роббинс, Патрик Сабонгуй, Лувия Петерсен, Патрик Гилмор, Дэниэл Бэйкон

Описание:
Будущее, на планете случилась некая глобальная катастрофа, в результате которой погибли миллиарды людей. Охотница за головами, которая почти ничем не отличается от тех, за кем охотится, пытается найти и обезвредить самого опасного преступника нового мира. За это ей обещают солидный куш.


Рейтинг MPAA: R (лицам до 17 лет обязательно присутствие взрослого)
Дата мировой премьеры: 2 февраля 2018

Продолжительность: 01:33:30
Качество видео: HDRip
Перевод: Многоголосый закадровый, любительский (Синема УС)
Субтитры: Отсутствуют
Реклама: Присутствуют вставки текстовой рекламы!

Видео: MPEG4, XviD, 720x384, 1 545 Kbps
Аудио: AC-3, 48.0 KHz, 2 ch, 448 Kbps

MediaInfo:


Общее
Полное имя : E:\NNM\Выжженная земля\Scorched Earth 2018 HDRip.avi
Формат : AVI
Формат/Информация : Audio Video Interleave
Профиль формата : OpenDML
Размер файла : 1,31 Гбайт
Продолжительность : 1 ч. 33 м.
Общий поток : 2006 Кбит/сек

Видео
Идентификатор : 0
Формат : MPEG-4 Visual
Профиль формата : Advanced Simple@L5
Настройки формата : BVOP2
Параметр BVOP формата : 2
Параметр QPel формата : Нет
Параметр GMC формата : Без точки перехода
Параметр матрицы формата : Default (MPEG)
Идентификатор кодека : XVID
Идентификатор кодека/Подсказка : XviD
Продолжительность : 1 ч. 33 м.
Битрейт : 1545 Кбит/сек
Ширина : 720 пикселей
Высота : 384 пикселя
Соотношение сторон : 1,85:1
Частота кадров : 23,976 (24000/1001) кадра/сек
Цветовое пространство : YUV
Субдискретизация насыщенности : 4:2:0
Битовая глубина : 8 бит
Тип развёртки : Прогрессивная
Метод сжатия : С потерями
Бит/(Пиксели*Кадры) : 0.233
Размер потока : 1,01 Гбайт (77%)
Библиотека кодирования : XviD 1.2.1 (UTC 2008-12-04)

Аудио
Идентификатор : 1
Формат : AC-3
Формат/Информация : Audio Coding 3
Идентификатор кодека : 2000
Продолжительность : 1 ч. 33 м.
Вид битрейта : Постоянный
Битрейт : 448 Кбит/сек
Каналы : 2 канала
Расположение каналов : Front: L R
Частота : 48,0 КГц
Частота кадров : 31,250 кадров/сек (1536 SPF)
Битовая глубина : 16 бит
Метод сжатия : С потерями
Размер потока : 300 Мбайт (22%)
Выравнивание : Соединение по промежуткам
Продолжительность промежутка : 32 мс. (0,77 видеокадр)
ServiceKind/String : Complete Main
Скриншоты:


Все одноименные релизы в Клубе
Детали торрента:
Название:Выжженная земля / Scorched Earth (2017) HDRip [MVO] [AD]
Дата добавления:13 Мар 2018 14:32:30
Размер:1,31 GB
Раздают:71
Качают:0
Форум:Новинки с Рекламой

All rights reserved © 2015-2018