TORRENTS43.COM

Скачать Новицки: Идеальный бросок / Nowitzki: The Perfect Shot / Nowitzki: Der perfekte Wurf (2014) DVB [H.264/1080i-LQ]


Новицки: Идеальный бросок / Nowitzki: The Perfect Shot / Nowitzki: Der perfekte Wurf (2014) DVB [H.264/1080i]
Телекомпания: Германия / Broadview TV, Perfect Shot Films
Жанр: Документальный, Биография, Спорт

Участники: Коби Брайант, Рик Карлайл, Винс Картер, Марк Кубан, Майкл Финли, Holger Geschwindner, Джейсон Кидд, Стив Нэш, Дон Нельсон, Донни Нельсон

Описание:
Документальный фильм, который следует за ранней карьерой баскетбольной звезды Dirk Nowitzki, его отношения с тренером и наставником Holger Geschwindner и их путь к славе НБА.


Продолжительность: 01:43:07
Качество видео: DVB [1080i]
Перевод: Многоголосый закадровый, профессиональный
Субтитры: отсутствуют

Видео: AVC/H.264, 1920х1080, ~6267 kbps
Аудио: MP2, 2 ch, 192 Kbps

Mediainfo:


Общее
Идентификатор : 16 (0x10)
Полное имя : Nowitzki The Perfect Shot_HD.ts
Формат : MPEG-TS
Размер файла : 4,92 Гбайт
Продолжительность : 1 ч. 43 м.
Режим общего битрейта : Переменный
Общий поток : 6797 Кбит/сек

Видео
Идентификатор : 1502 (0x5DE)
Идентификатор меню : 502 (0x1F6)
Формат : AVC
Формат/Информация : Advanced Video Codec
Профиль формата : High@L4
Настройки формата : CABAC / 3 Ref Frames
Параметр CABAC формата : Да
Параметр RefFrames формата : 3 кадра
Параметр GOP формата : M=4, N=32
Идентификатор кодека : 27
Продолжительность : 1 ч. 43 м.
Битрейт : 6267 Кбит/сек
Ширина : 1920 пикселей
Высота : 1080 пикселей
Соотношение сторон : 16:9
Частота кадров : 25,000 кадров/сек
Стандарт вещания : PAL
Цветовое пространство : YUV
Субдискретизация насыщенности : 4:2:0
Битовая глубина : 8 бит
Тип развёртки : Чересстрочная
Метод сохранения типа развёртки : Раздельные поля
Порядок развёртки : Верхнее поле первое
Бит/(Пиксели*Кадры) : 0.121
Размер потока : 4,54 Гбайт (92%)
Цветовой диапазон : Limited
Основные цвета : BT.709
Характеристики трансфера : BT.709
Коэффициенты матрицы : BT.709

Аудио
Идентификатор : 2502 (0x9C6)
Идентификатор меню : 502 (0x1F6)
Формат : MPEG Audio
Версия формата : Version 1
Профиль формата : Layer 2
Идентификатор кодека : 4
Продолжительность : 1 ч. 43 м.
Вид битрейта : Постоянный
Битрейт : 192 Кбит/сек
Каналы : 2 канала
Частота : 48,0 КГц
Метод сжатия : С потерями
Задержка видео : 112 мс.
Размер потока : 142 Мбайт (3%)
Язык : std
Язык, дополнительно : Clean effects
Скриншоты:


Все одноименные релизы в Клубе
Детали торрента:
Название:Новицки: Идеальный бросок / Nowitzki: The Perfect Shot / Nowitzki: Der perfekte Wurf (2014) DVB [H.264/1080i-LQ]
Дата добавления:14 Мар 2018 15:34:54
Размер:4,92 GB
Раздают:
Качают:0
Форум:Баскетбол, Волейбол, Гандбол

All rights reserved © 2015-2018