TORRENTS43.COM

Скачать Призрак в доспехах / Koukaku Kidoutai / Ghost in the Shell [1995, Movie] BDrip 480p raw+rus


Призрак в доспехах / Koukaku Kidoutai / Ghost in the Shell (1995) BDRip [H.264]
Производство: Япония, Великобритания / Bandai Visual Co. Ltd., Kodansha Ltd., Manga Entertainment, Production I.G.
Жанр: аниме, мультфильм, фантастика, фэнтези, боевик, триллер

Режиссер: Мамору Осии
Актеры: Ацуко Танака, Акио Оцука, Коити Ямадэра, Ютака Накано, Тамио Оки, Тэссё Гэнда, Намаки Масакадзу, Масато Яманоути, Синдзи Огава, Мицуру Миямото, Кадзухиро Ямадзи, Сигэру Тиба

Описание:
2029 год. Границы между государствами окончательно рухнули, благодаря повсеместно распространившимся компьютерным сетям и кибер-технологиям. Когда давно разыскиваемый хакер по кличке Кукловод начинает вмешиваться в политику, 9-й Отдел Министерства Общественной безопасности, группа кибернетически модифицированных полицейских, получает задание найти и остановить хакера. Но в ходе расследования возникает вопрос: кто же такой Кукловод в том мире где грань между человеком и машиной практически стерта?

World-Art
Возраст: 16+ (зрителям, достигшим 16 лет)
Дата мировой премьеры: 23 сентября 1995

Релиз от: stalkerok & New-Team
Продолжительность: 01:22:40
Качество видео: BDRip
Перевод: Дублированный (OPT), Двухголосый закадровый (П. Гланц и И. Королёва)
Субтитры: русские (форсированные, полные)

Видео: AVC/H.264, 1977 kbps, 892x482 (1.85:1), 23,976 fps
Аудио #1: AC3, 192 kbps, 2 ch - русский | Дубляж
Аудио #2: AC3, 192 kbps, 2 ch - русский | П. Гланц и И. Королёва
Аудио #3: AC3, 192 kbps, 2 ch - японский

Исходник

BDRemux @ TolstiyMob

x264/MediaInfo



---[Information] [19.03.2018 18:45:27] x264 [info]: frame I:769 Avg QP:18.86 size: 54292
---[Information] [19.03.2018 18:45:27] x264 [info]: frame P:19684 Avg QP:20.68 size: 19259
---[Information] [19.03.2018 18:45:27] x264 [info]: frame B:98467 Avg QP:21.04 size: 8177

Общее
Уникальный идентификатор : 244237544466604845783568612042831357539 (0xB7BE70A6AB8D87FEB1E8E810E8F4E663)
Полное имя : M:\!!!!!!Rips\Ghost in the Shel 1995\Ghost.in.the.Shell.1995.BDRip-AVC.rus.jap.stalkerok.new-team.mkv
Формат : Matroska
Версия формата : Version 4 / Version 2
Размер файла : 1,48 Гбайт
Продолжительность : 1 ч. 22 м.
Общий поток : 2556 Кбит/сек
Название фильма : Kôkaku Kidôtai / Ghost in the Shell (1995) (Rip by stalkerok)
Дата кодирования : UTC 2018-03-21 12:03:24
Программа кодирования : mkvmerge v8.6.1 ('Flying') 64bit
Библиотека кодирования : libebml v1.3.3 + libmatroska v1.4.4

Видео
Идентификатор : 1
Формат : AVC
Формат/Информация : Advanced Video Codec
Профиль формата : High@L4.1
Параметр CABAC формата : Да
Параметр ReFrames формата : 14 кадров
Идентификатор кодека : V_MPEG4/ISO/AVC
Продолжительность : 1 ч. 22 м.
Битрейт : 1977 Кбит/сек
Ширина : 892 пикселя
Высота : 482 пикселя
Соотношение сторон : 1,85:1
Режим частоты кадров : Постоянный
Частота кадров : 23,976 (24000/1001) кадра/сек
Цветовое пространство : YUV
Субдискретизация насыщенности : 4:2:0
Битовая глубина : 8 бит
Тип развёртки : Прогрессивная
Бит/(Пиксели*Кадры) : 0.192
Размер потока : 1,14 Гбайт (77%)
Заголовок : Kôkaku Kidôtai / Ghost in the Shell (1995) (Rip by stalkerok)
Библиотека кодирования : x264 core 155 r2901 7d0ff22
Настройки программы : cabac=1 / ref=14 / deblock=1:-1:-1 / analyse=0x3:0x133 / me=umh / subme=11 / psy=1 / psy_rd=1.00:0.00 / mixed_ref=1 / me_range=32 / chroma_me=1 / trellis=2 / 8x8dct=1 / cqm=0 / deadzone=21,11 / fast_pskip=0 / chroma_qp_offset=-2 / threads=12 / lookahead_threads=3 / sliced_threads=0 / nr=0 / decimate=1 / interlaced=0 / bluray_compat=0 / constrained_intra=0 / bframes=15 / b_pyramid=2 / b_adapt=2 / b_bias=0 / direct=3 / weightb=1 / open_gop=0 / weightp=2 / keyint=240 / keyint_min=23 / scenecut=40 / intra_refresh=0 / rc_lookahead=60 / rc=crf / mbtree=0 / crf=19.3 / qcomp=0.65 / qpmin=0 / qpmax=69 / qpstep=4 / vbv_maxrate=50000 / vbv_bufsize=62500 / crf_max=0.0 / nal_hrd=none / filler=0 / ip_ratio=1.40 / pb_ratio=1.30 / aq=3:0.85 / zones=112156,118919,q=36
Default : Да
Forced : Нет

Аудио #1
Идентификатор : 2
Формат : AC-3
Формат/Информация : Audio Coding 3
Расширение режима : CM (complete main)
Параметр Endianness формата : Big
Идентификатор кодека : A_AC3
Продолжительность : 1 ч. 22 м.
Вид битрейта : Постоянный
Битрейт : 192 Кбит/сек
Каналы : 2 канала
Расположение каналов : Front: L R
Частота : 48,0 КГц
Частота кадров : 31,250 кадров/сек (1536 spf)
Метод сжатия : С потерями
Размер потока : 114 Мбайт (8%)
Заголовок : Дубляж (звук от Hanway)
Язык : Russian
Default : Да
Forced : Нет

Аудио #2
Идентификатор : 3
Формат : AC-3
Формат/Информация : Audio Coding 3
Расширение режима : CM (complete main)
Параметр Endianness формата : Big
Идентификатор кодека : A_AC3
Продолжительность : 1 ч. 22 м.
Вид битрейта : Постоянный
Битрейт : 192 Кбит/сек
Каналы : 2 канала
Расположение каналов : Front: L R
Частота : 48,0 КГц
Частота кадров : 31,250 кадров/сек (1536 spf)
Метод сжатия : С потерями
Размер потока : 114 Мбайт (8%)
Заголовок : Гланц и Королева
Язык : Russian
Default : Нет
Forced : Нет

Аудио #3
Идентификатор : 4
Формат : AC-3
Формат/Информация : Audio Coding 3
Расширение режима : CM (complete main)
Параметр Endianness формата : Big
Идентификатор кодека : A_AC3
Продолжительность : 1 ч. 22 м.
Вид битрейта : Постоянный
Битрейт : 192 Кбит/сек
Каналы : 2 канала
Расположение каналов : Front: L R
Частота : 48,0 КГц
Частота кадров : 31,250 кадров/сек (1536 spf)
Метод сжатия : С потерями
Размер потока : 114 Мбайт (8%)
Язык : Japanese
Default : Нет
Forced : Нет

Текст #1
Идентификатор : 5
Формат : ASS
Идентификатор кодека : S_TEXT/ASS
Идентификатор кодека/Информация : Advanced Sub Station Alpha
Продолжительность : 1 ч. 17 м.
Битрейт : 152 бит/сек
Count of elements : 811
Метод сжатия : Без потерь
Размер потока : 86,1 Кбайт (0%)
Заголовок : субтитры по дубляжу
Язык : Russian
Default : Нет
Forced : Нет

Текст #2
Идентификатор : 6
Формат : UTF-8
Идентификатор кодека : S_TEXT/UTF8
Идентификатор кодека/Информация : UTF-8 Plain Text
Продолжительность : 1 ч. 17 м.
Битрейт : 106 бит/сек
Count of elements : 790
Размер потока : 60,6 Кбайт (0%)
Заголовок : субтитры с "Мэйдж"
Язык : Russian
Default : Нет
Forced : Нет

Текст #3
Идентификатор : 7
Формат : ASS
Идентификатор кодека : S_TEXT/ASS
Идентификатор кодека/Информация : Advanced Sub Station Alpha
Продолжительность : 1 ч. 17 м.
Битрейт : 130 бит/сек
Count of elements : 563
Метод сжатия : Без потерь
Размер потока : 74,0 Кбайт (0%)
Заголовок : перевод Advokat
Язык : Russian
Default : Нет
Forced : Нет

Текст #4
Идентификатор : 8
Формат : ASS
Идентификатор кодека : S_TEXT/ASS
Идентификатор кодека/Информация : Advanced Sub Station Alpha
Продолжительность : 1 ч. 17 м.
Битрейт : 108 бит/сек
Count of elements : 810
Метод сжатия : Без потерь
Размер потока : 61,5 Кбайт (0%)
Заголовок : субтитры от OZC
Язык : English
Default : Нет
Forced : Нет

Меню
00:00:00.000 : :Dive-1
00:04:06.163 : :Opening
00:08:24.754 : :Ghost Hack
00:13:15.169 : :Hacker
00:24:17.706 : :Malles
00:26:05.063 : :Memories
00:27:40.158 : :Dive-2
00:33:02.981 : :Wander
00:36:21.513 : :Robot Body
00:45:32.271 : :Puppet Master
00:53:59.486 : :Chase
00:59:40.410 : :Dive-3
01:06:24.355 : :Dive-4
01:13:58.434 : :Re-incarnation
01:17:31.480 : :End title

Скриншоты:


Все одноименные релизы в Клубе

Смотреть Online

http://moonwalk.cc/video/08be94cc6469ab48/iframe
Детали торрента:
Название:Призрак в доспехах / Koukaku Kidoutai / Ghost in the Shell [1995, Movie] BDrip 480p raw+rus
Дата добавления:21 Мар 2018 16:04:31
Размер:1,48 GB
Раздают:6
Качают:0
Форум:Аниме с озвучкой (SD)

All rights reserved © 2015-2018