TORRENTS43.COM

Скачать Энни получает ваше оружие / Annie Get Your Gun (1950) DVDRip [H.264] [VO]


Энни получает ваше оружие / Annie Get Your Gun (1950) DVDRip [H.264]
Производство: США / Metro-Goldwyn-Mayer (MGM)
Жанр: Мюзикл, Мелодрама, Комедия, Вестерн

Режиссер: Джордж Сидни, Басби Беркли
Продюсер: Артур Фрид, Роджер Эденс
Актеры: Бетти Хаттон, Ховард Кил, Луи Кэлхерн, Дж. Кэролл Нейш, Эдвард Арнольд, Кинен Уинн, Бени Венута, Клинтон Сандберг, Дороти Эбботт, Бетт Арлен

Описание:
Чтобы заработать лишний доллар метко стреляющая чумазая девчонка, принимает участие в легендарном шоу Баффало Билла, которое тот привез в маленький городок, где в ходе стрелкового поединка она с блеском побеждает известного самовлюбленного чемпиона по меткой стрельбе...
Баффало Билл Коди видя в неотесанной девушке восходящую звезду, без раздумий приглашает гадкого утенка присоединиться к своему шоу, в котором ей просто суждено превратиться в прекрасного лебедя...



Релиз от: Охрана (Torrents43.com)
Продолжительность: 01:47:32
Качество видео: DVDRip
Перевод: Одноголосый закадровый (А. Мосин - Щепачев)
Субтитры: Русские

Видео: AVC/H.264, 720x544, ~1945 Kbps
Аудио 1: Русский, AC3, 1 ch, 192 Kbps, 48.0 kHz
Аудио 2: Английский, AC3, 1 ch, 192 Kbps, 48.0 kHz

Mediainfo:


Общее
Уникальный идентификатор : 218622086319909281028745572577099929910 (0xA479150EA66B7370BAE28E6DF5E05936)
Полное имя : F:\Downloads\Энни получает ваше оружие. 1950. torrents43.comv
Формат : Matroska
Версия формата : Version 4 / Version 2
Размер файла : 1,75 Гбайт
Продолжительность : 1 ч. 47 м.
Общий поток : 2331 Кбит/сек
Дата кодирования : UTC 2018-03-22 12:55:12
Программа кодирования : mkvmerge v7.9.0 ('Birds') 64bit
Библиотека кодирования : libebml v1.3.1 + libmatroska v1.4.2

Видео
Идентификатор : 1
Формат : AVC
Формат/Информация : Advanced Video Codec
Профиль формата : High@L4.1
Настройки формата : CABAC / 12 Ref Frames
Параметр CABAC формата : Да
Параметр RefFrames формата : 12 кадров
Идентификатор кодека : V_MPEG4/ISO/AVC
Продолжительность : 1 ч. 47 м.
Битрейт : 1945 Кбит/сек
Ширина : 720 пикселей
Высота : 544 пикселя
Соотношение сторон : 4:3
Режим частоты кадров : Постоянный
Частота кадров : 23,976 (24000/1001) кадра/сек
Цветовое пространство : YUV
Субдискретизация насыщенности : 4:2:0
Битовая глубина : 8 бит
Тип развёртки : Прогрессивная
Бит/(Пиксели*Кадры) : 0.207
Размер потока : 1,46 Гбайт (83%)
Заголовок : Annie Get Your Gun
Библиотека кодирования : x264 core 146 r2538 121396c
Настройки программы : cabac=1 / ref=12 / deblock=1:-1:-1 / analyse=0x3:0x113 / me=umh / subme=10 / psy=1 / psy_rd=1.00:0.10 / mixed_ref=1 / me_range=32 / chroma_me=1 / trellis=2 / 8x8dct=1 / cqm=0 / deadzone=21,11 / fast_pskip=0 / chroma_qp_offset=-3 / threads=6 / lookahead_threads=1 / sliced_threads=0 / nr=0 / decimate=0 / interlaced=0 / bluray_compat=0 / constrained_intra=0 / bframes=7 / b_pyramid=2 / b_adapt=2 / b_bias=0 / direct=3 / weightb=1 / open_gop=0 / weightp=2 / keyint=250 / keyint_min=25 / scenecut=40 / intra_refresh=0 / rc_lookahead=60 / rc=2pass / mbtree=1 / bitrate=1945 / ratetol=1.0 / qcomp=0.60 / qpmin=0 / qpmax=69 / qpstep=4 / cplxblur=20.0 / qblur=0.5 / vbv_maxrate=14000 / vbv_bufsize=14000 / nal_hrd=none / filler=0 / ip_ratio=1.40 / aq=1:1.00
Язык : English
Default : Да
Forced : Нет

Аудио #1
Идентификатор : 2
Формат : AC-3
Формат/Информация : Audio Coding 3
Идентификатор кодека : A_AC3
Продолжительность : 1 ч. 47 м.
Вид битрейта : Постоянный
Битрейт : 192 Кбит/сек
Каналы : 1 канал
Расположение каналов : Front: C
Частота : 48,0 КГц
Частота кадров : 31,250 кадров/сек (1536 SPF)
Битовая глубина : 16 бит
Метод сжатия : С потерями
Задержка видео : 11 мс.
Размер потока : 148 Мбайт (8%)
Заголовок : Одноголосый закадровый
Язык : Russian
ServiceKind/String : Complete Main
Default : Да
Forced : Нет

Аудио #2
Идентификатор : 3
Формат : AC-3
Формат/Информация : Audio Coding 3
Идентификатор кодека : A_AC3
Продолжительность : 1 ч. 47 м.
Вид битрейта : Постоянный
Битрейт : 192 Кбит/сек
Каналы : 1 канал
Расположение каналов : Front: C
Частота : 48,0 КГц
Частота кадров : 31,250 кадров/сек (1536 SPF)
Битовая глубина : 16 бит
Метод сжатия : С потерями
Задержка видео : 11 мс.
Размер потока : 148 Мбайт (8%)
Заголовок : Английский
Язык : English
ServiceKind/String : Complete Main
Default : Нет
Forced : Нет

Текст
Идентификатор : 4
Формат : UTF-8
Идентификатор кодека : S_TEXT/UTF8
Идентификатор кодека/Информация : UTF-8 Plain Text
Продолжительность : 1 ч. 46 м.
Битрейт : 116 бит/сек
ElementCount : 1530
Размер потока : 91,3 Кбайт (0%)
Заголовок : SRT
Язык : Russian
Default : Нет
Forced : Нет
Скриншоты:

Дополнительные скриншоты:



Все одноименные релизы в Клубе
Детали торрента:
Название:Энни получает ваше оружие / Annie Get Your Gun (1950) DVDRip [H.264] [VO]
Дата добавления:23 Мар 2018 12:19:19
Размер:1,75 GB
Раздают:2
Качают:1
Форум:Зарубежная Классика (HD*Rip/LQ, DVDRip, SATRip, VHSRip)

All rights reserved © 2015-2018