TORRENTS43.COM

Скачать Переправа / The Crossing (2018) WEB-DLRip (сезон 1, серии 1-11 из 11) LostFilm


Переправа / The Crossing (2018) WEB-DLRip (сезон 1, серии 1-11 из 11)
Производство: США / ABC Studios, Jason T. Reed Productions, Stage 49
Жанр: фантастика, драма, приключения

Режиссер: Роб Боумен, Кен Джиротти, Джеффри Дж. Хант
Актеры: Рик Гомес, Грант Уитни Харви, Келли Миссал, Симона Кэссел, Люк Камиллери, Стив Зан, Кристиан Майкл Купер, Райан МакДонелл, Сандрин Холт, Барбара Ив Харрис и др.

Описание:
Волны выбрасывают на промозглый орегонский пляж тела непонятно откуда взявшихся беженцев. Все они прибыли из будущего, в котором сейчас вовсю разворачивается очередная мировая война. В том, чем грозит нашествие, пытается разобраться местный шериф.


Возраст: 18+ (зрителям, достигшим 18 лет)
Дата мировой премьеры: 19 марта 2018

Продолжительность: ~00:43:00 серия
Качество видео: WEB-DLRip
Перевод: Многоголосый закадровый, профессиональный - LostFilm

Видео: XviD, 720x400 (16:9), ~1502 kbps
Аудио 1: MP3, 48,0 kHz, 2 ch, 128 kbps — русский, многоголосый закадровый
Аудио 2: MP3, 48,0 kHz, 2 ch, 128 kbps — английский

MediaInfo


Общее
Полное имя : D:\Переправа (сезон 1) The Crossing (2018) WEB-DLRip - LostFilm\The.Crossing.S01E01.WEB-DLRip.Rus.Eng.DV.LostFilm.avi
Формат : AVI
Формат/Информация : Audio Video Interleave
Размер файла : 542 Мбайт
Продолжительность : 42 м. 44 с.
Общий поток : 1772 Кбит/сек
Название фильма : The.Crossing.S01E01.WEB-DLRip.Rus.Eng.DV.LostFilm / torrents43.com />Программа кодирования : VirtualDubModRus 1.5.10.2 (build 2542/release)
Библиотека кодирования : VirtualDubMod build 2542/release

Видео
Идентификатор : 0
Формат : MPEG-4 Visual
Профиль формата : Advanced Simple@L5
Настройки формата : BVOP2
Параметр BVOP формата : 2
Параметр QPel формата : Нет
Параметр GMC формата : Без точки перехода
Параметр матрицы формата : Default (H.263)
Идентификатор кодека : XVID
Идентификатор кодека/Подсказка : XviD
Продолжительность : 42 м. 44 с.
Битрейт : 1502 Кбит/сек
Ширина : 720 пикселей
Высота : 400 пикселей
Соотношение сторон : 16:9
Частота кадров : 23,976 (24000/1001) кадра/сек
Цветовое пространство : YUV
Субдискретизация насыщенности : 4:2:0
Битовая глубина : 8 бит
Тип развёртки : Прогрессивная
Метод сжатия : С потерями
Бит/(Пиксели*Кадры) : 0.218
Размер потока : 459 Мбайт (85%)
Заголовок : Rip by DriverV / torrents43.com />Библиотека кодирования : XviD 67

Аудио #1
Идентификатор : 1
Формат : MPEG Audio
Версия формата : Version 1
Профиль формата : Layer 3
Настройки формата : Joint stereo / MS Stereo
Идентификатор кодека : 55
Идентификатор кодека/Подсказка : MP3
Продолжительность : 42 м. 44 с.
Вид битрейта : Постоянный
Битрейт : 128 Кбит/сек
Каналы : 2 канала
Частота : 48,0 КГц
Метод сжатия : С потерями
Размер потока : 39,1 Мбайт (7%)
Выравнивание : Соединение по промежуткам
Продолжительность промежутка : 42 мс. (1,00 видеокадр)
Время предзагрузки промежутка : 504 мс.

Аудио #2
Идентификатор : 2
Формат : MPEG Audio
Версия формата : Version 1
Профиль формата : Layer 3
Настройки формата : Joint stereo / MS Stereo
Идентификатор кодека : 55
Идентификатор кодека/Подсказка : MP3
Продолжительность : 42 м. 44 с.
Вид битрейта : Постоянный
Битрейт : 128 Кбит/сек
Каналы : 2 канала
Частота : 48,0 КГц
Метод сжатия : С потерями
Размер потока : 39,1 Мбайт (7%)
Выравнивание : Соединение по промежуткам
Продолжительность промежутка : 42 мс. (1,00 видеокадр)
Время предзагрузки промежутка : 504 мс.

Список серий

01. Pilot / Пилот
02. A Shadow Out of Time / Тень вне времени
03. Pax Americana / Американский мир
04. The Face of Oblivion / Лик забвения
05. Ten Years Gone / Десять лет спустя
06. LKA / Последнее известное местонахождение
07. Some Dreamers of the Golden Dream / Золотая мечта
08. The Long Morrow / Долгое завтра
09. Hope Smiles from the Threshold / Надежда улыбается с порога
10. The Androcles Option / Выбор Андрокла
11. These Are the Names / Вот имена

Дополнительная информация

"Чистый" кадр. Вступительная заставка и логотип LostFilm отсутствуют.
Скриншоты:



Все одноименные релизы в Клубе

Смотреть Online

http://moonwalk.cc/video/0e9f6ce4c2398780/iframe
Детали торрента:
Название:Переправа / The Crossing (2018) WEB-DLRip (сезон 1, серии 1-11 из 11) LostFilm
Дата добавления:13 Июн 2018 16:59:55
Размер:5,74 GB
Раздают:100
Качают:22
Форум:Зарубежные сериалы

All rights reserved © 2015-2018