TORRENTS43.COM

Скачать Kenny Burrell - Bluesin' Around (1961, 1962) 2017, Sony Music [FLAC|Lossless|image + .cue] <Hard Bop, Mainstream Jazz>


Kenny Burrell - Bluesin' Around (1961, 1962) 2017, Sony Music
Жанр: Hard Bop, Mainstream Jazz
Издание: Sony Music / Columbia / Legacy - 889854046922
Продолжительность: 00:37:27

Кодек: FLAC (image+.cue)
Битрейт: Lossless
Источник (релизер): Собственный рип
Страна-производитель диска: EU
Наличие сканов в содержимом раздачи: да

Треклист:

01. Mambo Twist [05:10]
02. The Switch [03:06]
03. The Squeeze [04:21]
04. Bluesin' Around [03:46]
05. Bye And Bye [02:53]
06. Moten Swing [06:23]
07. People Will Say We're In Love [03:43]
08. One Mint Julep [03:28]
09. Mood Indigo [04:41]

Отчёт EAC:


Exact Audio Copy V1.0 beta 3 from 29. August 2011

EAC extraction logfile from 26. March 2018, 20:33

Kenny Burrell / Bluesin' Around

Used drive : TSSTcorpCDDVDW SH-224FB Adapter: 1 ID: 0

Read mode : Secure
Utilize accurate stream : Yes
Defeat audio cache : Yes
Make use of C2 pointers : No

Read offset correction : 6
Overread into Lead-In and Lead-Out : No
Fill up missing offset samples with silence : Yes
Delete leading and trailing silent blocks : No
Null samples used in CRC calculations : Yes
Used interface : Native Win32 interface for Win NT & 2000

Used output format : User Defined Encoder
Selected bitrate : 128 kBit/s
Quality : High
Add ID3 tag : No
Command line compressor : C:\Program Files (x86)\Exact Audio Copy\Flac\flac.exe
Additional command line options : -V -8 -T "Genre=%genre%" -T "Artist=%artist%" -T "Title=%title%" -T "Album=%albumtitle%" -T "Date=%year%" -T "Tracknumber=%tracknr%" -T "Comment=%comment%" %source%

TOC of the extracted CD

Track | Start | Length | Start sector | End sector
---------------------------------------------------------
1 | 0:00.00 | 5:09.52 | 0 | 23226
2 | 5:09.52 | 3:05.33 | 23227 | 37134
3 | 8:15.10 | 4:20.10 | 37135 | 56644
4 | 12:35.20 | 3:45.25 | 56645 | 73544
5 | 16:20.45 | 2:52.55 | 73545 | 86499
6 | 19:13.25 | 6:22.50 | 86500 | 115199
7 | 25:36.00 | 3:42.57 | 115200 | 131906
8 | 29:18.57 | 3:27.38 | 131907 | 147469
9 | 32:46.20 | 4:40.32 | 147470 | 168501

Range status and errors

Selected range

Filename D:\1\Kenny Burrell - Bluesin' Around (2017)\Kenny Burrell - Bluesin' Around.wav

Peak level 95.4 %
Extraction speed 2.7 X
Range quality 100.0 %
Test CRC 8B4790D7
Copy CRC 8B4790D7
Copy OK

No errors occurred

AccurateRip summary

Track 1 accurately ripped (confidence 2) [F96E0B22] (AR v2)
Track 2 accurately ripped (confidence 2) [AF177BE1] (AR v2)
Track 3 accurately ripped (confidence 2) [DA66D9FE] (AR v2)
Track 4 accurately ripped (confidence 2) [37AF9F7A] (AR v2)
Track 5 accurately ripped (confidence 2) [50CC96A4] (AR v2)
Track 6 accurately ripped (confidence 2) [E382C4C6] (AR v2)
Track 7 accurately ripped (confidence 2) [4156E491] (AR v2)
Track 8 accurately ripped (confidence 2) [6854B9CF] (AR v2)
Track 9 accurately ripped (confidence 2) [95C26FB9] (AR v2)

All tracks accurately ripped

End of status report

==== Log checksum 4B348D444E2C74D804955FD3023599CC2A1970B66B3989CC2A5F2BED6192C9E5 ====

Cue Sheet (.cue):


REM GENRE Jazz
REM DATE 2017
REM DISCID 8408C609
REM COMMENT "ExactAudioCopy v1.0b3"
CATALOG 5099747223921
PERFORMER "Kenny Burrell"
TITLE "Bluesin' Around"
FILE "Kenny Burrell - Bluesin' Around.flac" WAVE
TRACK 01 AUDIO
TITLE "Mambo Twist"
PERFORMER "Kenny Burrell"
ISRC USSM11700521
INDEX 01 00:00:00
TRACK 02 AUDIO
TITLE "The Switch"
PERFORMER "Kenny Burrell"
ISRC USSM11700522
INDEX 00 05:06:12
INDEX 01 05:09:52
TRACK 03 AUDIO
TITLE "The Squeeze"
PERFORMER "Kenny Burrell"
ISRC USSM16201529
INDEX 00 08:13:45
INDEX 01 08:15:10
TRACK 04 AUDIO
TITLE "Bluesin' Around"
PERFORMER "Kenny Burrell"
ISRC USSM19918770
INDEX 00 12:32:40
INDEX 01 12:35:20
TRACK 05 AUDIO
TITLE "Bye And Bye"
PERFORMER "Kenny Burrell"
ISRC USSM16101060
INDEX 00 16:17:47
INDEX 01 16:20:45
TRACK 06 AUDIO
TITLE "Moten Swing"
PERFORMER "Kenny Burrell"
ISRC USSM16201526
INDEX 00 19:10:42
INDEX 01 19:13:25
TRACK 07 AUDIO
TITLE "People Will Say We're In Love"
PERFORMER "Kenny Burrell"
ISRC USSM10013596
INDEX 00 25:33:42
INDEX 01 25:36:00
TRACK 08 AUDIO
TITLE "One Mint Julep"
PERFORMER "Kenny Burrell"
ISRC USSM16201540
INDEX 00 29:16:52
INDEX 01 29:18:57
TRACK 09 AUDIO
TITLE "Mood Indigo"
PERFORMER "Kenny Burrell"
ISRC USSM10006963
INDEX 00 32:44:27
INDEX 01 32:46:20

Отчёт auCDtect Task manager:


-----------------------

DON'T MODIFY THIS FILE

-----------------------

PERFORMER: auCDtect Task Manager, ver. 1.6.0 RC1 build 1.6.0.1
Copyright (c) 2008-2010 y-soft. All rights reserved
http://y-soft.org

ANALYZER: auCDtect: CD records authenticity detector, version 0.8.2
Copyright (c) 2004 Oleg Berngardt. All rights reserved.
Copyright (c) 2004 Alexander Djourik. All rights reserved.

FILE: Kenny Burrell - Bluesin' Around.flac
Size: 227568237 Hash: 3E83F9616DCAA5876AB38C25D26F42B7 Accuracy: -m0
Conclusion: CDDA 100%
Signature: ACA1CD22C7CDF503AB155238AB787E833EBBF6AC

Состав

Kenny Burrell - guitar
Illinois Jacquet - tenor sax
Hank Jones - piano
Major Holley - bass
Jimmy Crawford - drums
Eddie Bert - trombone
George Duvivier - bass
Louis Hayes - drums
Leo Wright - alto sax
Jack McDuff - organ
Joe Dukes - drums
Детали торрента:
Название:Kenny Burrell - Bluesin' Around (1961, 1962) 2017, Sony Music [FLAC|Lossless|image + .cue] <Hard Bop, Mainstream Jazz>
Дата добавления:27 Мар 2018 13:01:21
Размер:221 MB
Раздают:2
Качают:0
Форум:Jazz (Lossless)

All rights reserved © 2015-2018