TORRENTS43.COM

Скачать Лёд (2018) WEB-DLRip


Лёд (2018) WEB-DLRip
Производство: Россия / Телеканал «РОССИЯ 1», Кинокомпания «Водород», Art Pictures Studio
Жанр: Мелодрама, драма, спорт

Режиссер: Олег Трофим
Актеры: Аглая Тарасова, Диана Енакаева, Мария Аронова, Александр Петров, Милош Бикович, Ян Цапник, Ксения Раппопорт, Ксения Лаврова-Глинка, Павел Майков, Максим Белбородов

Описание:
С самого детства Надя верила в чудеса. Она представляла себе, как выходит на лёд под овации публики и танцует свой самый красивый танец. И вот, благодаря вере и упорству, Надя становится знаменитой фигуристкой. Но когда ее мечты о громких победах, красивой жизни и прекрасном принце уже, кажется, готовы исполниться, судьба преподносит ей настоящее испытание. И чтобы его пройти, нужно будет снова, как в детстве, поверить в мечту. Ведь, может быть, победа не всегда должна быть громкой, а прекрасный принц не обязательно передвигается на белом коне?..


Возраст: 12+ (зрителям, достигшим 12 лет)
Дата мировой премьеры: 14 февраля 2018
Дата премьеры в России: 14 февраля 2018
Цифровой релиз: 28 марта 2018


Продолжительность: 01:57:51
Качество видео: WEB-DLRip
Перевод: Не требуется (русский) iTunes
Субтитры: Отсутствуют

Видео: XviD, 720x304, ~1381 Kbps
Аудио: AC-3, 48.0 KHz, 6 ch, 384 Kbps

MediaInfo:


Общее
Полное имя : E:\NNM\Лёд\Лёд 2018 WEB-DLRip 1400.avi
Формат : AVI
Формат/Информация : Audio Video Interleave
Размер файла : 1,46 Гбайт
Продолжительность : 1 ч. 57 м.
Общий поток : 1774 Кбит/сек
Программа кодирования : VirtualDubMod 1.5.10.2 (build 2540/release)
Библиотека кодирования : VirtualDubMod build 2540/release

Видео
Идентификатор : 0
Формат : MPEG-4 Visual
Профиль формата : Advanced Simple@L5
Настройки формата : BVOP1 / Custom Matrix
Параметр BVOP формата : 1
Параметр QPel формата : Нет
Параметр GMC формата : Без точки перехода
Параметр матрицы формата : Выборочная
Идентификатор кодека : XVID
Идентификатор кодека/Подсказка : XviD
Продолжительность : 1 ч. 57 м.
Битрейт : 1381 Кбит/сек
Ширина : 720 пикселей
Высота : 304 пикселя
Соотношение сторон : 2,35:1
Частота кадров : 23,976 (24000/1001) кадра/сек
Цветовое пространство : YUV
Субдискретизация насыщенности : 4:2:0
Битовая глубина : 8 бит
Тип развёртки : Прогрессивная
Метод сжатия : С потерями
Бит/(Пиксели*Кадры) : 0.263
Размер потока : 1,14 Гбайт (78%)
Библиотека кодирования : XviD 73

Аудио
Идентификатор : 1
Формат : AC-3
Формат/Информация : Audio Coding 3
Идентификатор кодека : 2000
Продолжительность : 1 ч. 57 м.
Вид битрейта : Постоянный
Битрейт : 384 Кбит/сек
Каналы : 6 каналов
Расположение каналов : Front: L C R, Side: L R, LFE
Частота : 48,0 КГц
Частота кадров : 31,250 кадров/сек (1536 SPF)
Битовая глубина : 16 бит
Метод сжатия : С потерями
Размер потока : 324 Мбайт (22%)
Выравнивание : Разделение по промежуткам
Продолжительность промежутка : 42 мс. (1,00 видеокадр)
Время предзагрузки промежутка : 500 мс.
ServiceKind/String : Complete Main
Скриншоты:


Все одноименные релизы в Клубе
Детали торрента:
Название:Лёд (2018) WEB-DLRip
Дата добавления:28 Мар 2018 00:38:51
Размер:1,46 GB
Раздают:64
Качают:0
Форум:Отечественные Новинки (HD*Rip/LQ, DVDRip)

All rights reserved © 2015-2018