TORRENTS43.COM

Скачать Террор / The Terror (2018) WEBRip [H.264/720p-LQ] (сезон 1, серии 1-10 из 10) LostFilm


Террор / The Terror (2018) WEBRip [H.264/720p-LQ] (сезон 1, серии 1-10 из 10) LostFilm
Производство: США / EMJAG Productions, Entertainment 360, Scott Free Productions
Жанр: ужасы, драма

Режиссер: Тим Милантс, Эдвард Бергер, Серджо Мимика-Геззан
В ролях: Джаред Харрис, Киаран Хайндс, Тобайас Мензис, Крис Корригэн, Иэн Харт, Кристос Лоутон, Мэттью МакНалти, Адам Нагаитис, Нив Нилсен, Пол Рэди и др.

Описание:
В 1845 году экспедиция под командованием опытного полярного исследователя сэра Джона Франклина отправляется на судах «Террор» и «Эребус» к северному побережью Канады на поиск северо-западного прохода из Атлантического океана в Тихий — и бесследно исчезает. Поиски ее затянулись на несколько десятилетий, сведения о ее судьбе собирались буквально по крупицам, и до сих пор картина происшедшего пестрит белыми пятнами.


Возраст: 18+ (зрителям, достигшим 18 лет)
Дата мировой премьеры: 26 марта 2018


Продолжительность: ~00:46:00 серия
Качество видео: WEBRip
Перевод: Многоголосый закадровый, профессиональный (LostFilm)
Субтитры: русские, английские

Видео: AVC/H.264, 1280x720 (16:9), ~3655 kbps
Аудио 1: EAC3, 48 kHz, 6 ch, 640 kbps — русский, многоголосый закадровый
Аудио 2: EAC3, 48 kHz, 6 ch, 640 kbps — английский

Mediainfo:


General
Unique ID : 223316194786008660971977194874433845302 (0xA80122791C45E3A18BA10C574BC23836)
Complete name : C:\Users\Simon\Downloads\Загрузки\The.Terror_s01_720p_LostFilm\The.Terror_s01e01.720p.LostFilm.mkv
Format : Matroska
Format version : Version 4 / Version 2
File size : 1.59 GiB
Duration : 46 min 8 s
Overall bit rate : 4 937 kb/s
Encoded date : UTC 2018-03-29 16:27:27
Writing application : mkvmerge v18.0.0 ('Apricity') 64-bit
Writing library : libebml v1.3.5 + libmatroska v1.4.8

Video
ID : 1
Format : AVC
Format/Info : Advanced Video Codec
Format profile : High@L4.1
Format settings : CABAC / 9 Ref Frames
Format settings, CABAC : Yes
Format settings, ReFrames : 9 frames
Codec ID : V_MPEG4/ISO/AVC
Duration : 46 min 8 s
Bit rate : 3 655 kb/s
Width : 1 280 pixels
Height : 720 pixels
Display aspect ratio : 16:9
Frame rate mode : Constant
Frame rate : 23.976 (24000/1001) FPS
Color space : YUV
Chroma subsampling : 4:2:0
Bit depth : 8 bits
Scan type : Progressive
Bits/(Pixel*Frame) : 0.165
Stream size : 1.18 GiB (74%)
Writing library : x264 core 148 r2643 5c65704
Encoding settings : cabac=1 / ref=9 / deblock=1:-3:-3 / analyse=0x3:0x133 / me=umh / subme=11 / psy=1 / psy_rd=1.00:0.00 / mixed_ref=1 / me_range=32 / chroma_me=1 / trellis=2 / 8x8dct=1 / cqm=0 / deadzone=21,11 / fast_pskip=1 / chroma_qp_offset=-2 / threads=6 / lookahead_threads=2 / sliced_threads=0 / nr=0 / decimate=0 / interlaced=0 / bluray_compat=0 / constrained_intra=0 / bframes=8 / b_pyramid=2 / b_adapt=2 / b_bias=0 / direct=3 / weightb=1 / open_gop=0 / weightp=2 / keyint=250 / keyint_min=23 / scenecut=40 / intra_refresh=0 / rc=crf / mbtree=0 / crf=17.0 / qcomp=0.60 / qpmin=0 / qpmax=69 / qpstep=4 / ip_ratio=1.40 / pb_ratio=1.30 / aq=3:0.85
Language : English
Default : Yes
Forced : No

Audio #1
ID : 2
Format : E-AC-3
Format/Info : Enhanced Audio Coding 3
Codec ID : A_EAC3
Duration : 46 min 8 s
Bit rate mode : Constant
Bit rate : 640 kb/s
Channel(s) : 6 channels
Channel positions : Front: L C R, Side: L R, LFE
Sampling rate : 48.0 kHz
Frame rate : 187.500 FPS (256 SPF)
Compression mode : Lossy
Stream size : 211 MiB (13%)
Title : DD5.1 LostFilm
Language : Russian
Service kind : Complete Main
Default : No
Forced : No

Audio #2
ID : 3
Format : E-AC-3
Format/Info : Enhanced Audio Coding 3
Codec ID : A_EAC3
Duration : 46 min 8 s
Bit rate mode : Constant
Bit rate : 640 kb/s
Channel(s) : 6 channels
Channel positions : Front: L C R, Side: L R, LFE
Sampling rate : 48.0 kHz
Frame rate : 187.500 FPS (256 SPF)
Compression mode : Lossy
Stream size : 211 MiB (13%)
Title : DD5.1 Original
Language : English
Service kind : Complete Main
Default : No
Forced : No

Text #1
ID : 4
Format : UTF-8
Codec ID : S_TEXT/UTF8
Codec ID/Info : UTF-8 Plain Text
Duration : 44 min 28 s
Bit rate : 93 b/s
Count of elements : 552
Stream size : 30.4 KiB (0%)
Title : PhysKids
Language : Russian
Default : No
Forced : No

Text #2
ID : 5
Format : UTF-8
Codec ID : S_TEXT/UTF8
Codec ID/Info : UTF-8 Plain Text
Duration : 44 min 26 s
Bit rate : 54 b/s
Count of elements : 555
Stream size : 17.9 KiB (0%)
Language : English
Default : No
Forced : No

Text #3
ID : 6
Format : UTF-8
Codec ID : S_TEXT/UTF8
Codec ID/Info : UTF-8 Plain Text
Duration : 45 min 22 s
Bit rate : 65 b/s
Count of elements : 724
Stream size : 21.6 KiB (0%)
Language : English
Default : No
Forced : No

Menu
00:00:00.000 : en:Studio Logo
00:00:07.000 : en:Prologue
00:00:39.000 : en:James searches for a person
00:02:51.000 : en:Four years ago
00:06:30.000 : en:The officers dine together
00:09:54.000 : en:Opening Credits
00:10:24.000 : en:Man overboard
00:14:46.000 : en:The officers assess the damage
00:18:39.000 : en:David is near death
00:21:17.000 : en:David has a vision
00:25:35.000 : en:Collins goes below the ship
00:32:11.000 : en:The ships are heading for more ice
00:36:55.000 : en:David is laid to rest
00:41:07.000 : en:Six days later
00:45:37.000 : en:End Credits

Список серий

✓ 1 серия: 2018-03-26 - Go for Broke
✓ 2 серия: 2018-03-26 - Gore
✓ 3 серия: 2018-04-02 - The Ladder
✓ 4 серия: 2018-04-09 - Punished, as a Boy
✓ 5 серия: 2018-04-16 - First Shot a Winner, Lads
✓ 6 серия: 2018-04-23 - A Mercy
✓ 7 серия: 2018-04-30 - Horrible from Supper
✓ 8 серия: 2018-05-07 - Terror Camp Clear
✓ 9 серия: 2018-05-14 - The C, the C, the Open C
✓ 10 серия: 2018-05-21 - We Are Gone

Дополнительная информация:

"Чистый" кадр. Вступительная заставка и логотип LostFilm отсутствуют.
Скриншоты:



Все одноименные релизы в Клубе

Смотреть Online

http://moonwalk.cc/video/912343d5723e8880/iframe
Детали торрента:
Название:Террор / The Terror (2018) WEBRip [H.264/720p-LQ] (сезон 1, серии 1-10 из 10) LostFilm
Дата добавления:01 Май 2018 06:03:43
Размер:13,8 GB
Раздают:97
Качают:7
Форум:Зарубежные сериалы

All rights reserved © 2015-2018