TORRENTS43.COM

Скачать Hitorinoshita - The Outcast 2 | Hitori no Shita - The Outcast 2 | Один из отвергнутых - Изгой 2 [2018, ONA, 21 из 24] WEBRip 1080p raw+rus


人之下 - THE OUTCAST 2nd シーズン | Hitorinoshita - The Outcast 2 | Hitori no Shita - The Outcast 2 | Один из отвергнутых - Изгой 2
Тип: ONA
Жанр: приключения, мистика, боевые искусства
Продолжительность: 24 эп. по 25 мин.
Количество серий: 21 из 24

Дата выпуска: c 10.01.2018
Производство: Япония, Haoliners
Автор оригинала: Man Tang Dong
Режиссер: Mi Er
World-Art | AniDB | MAL

Описание:
После событий первого сезона Чо Соран с почтовым агентством «Экспресс-доставка» прибывает на турнир изгоев. Чо Сорану предстоит узнать больше о своём деде и мире изгоев. Какие противники со своими техниками попадутся ему и Фу Хоухоу с её нелюдимыми выходками?

© Shikimori
Качество видео: WEBRip
Видео: AVC/H.264, 1920х1080, 23.976 fps, 3072 Kb/s, 8 bit [HorribleSubs]
Язык озвучки: Русский
Аудио 1: AAC, Встроенное, 44.1kHz, 128 kb/s, 2 ch | Jap | Звук: Оригинал
Аудио 2: AAC, Встроенное, 48kHz, 192 kb/s, 2 ch | Rus | Звук: Majestic-kun, ArtLight, Panda Ksyao, Hotarubi, Mutsuko_Air (AniPlay)
Субтитры: Русские
Перевод1: ASS, Встроенные | Rus | Тип: Надписи (AniPlay)
Перевод2: ASS, Встроенные | Rus | Тип: Полные (AniPlay)
Перевод3: ASS, Встроенные | Eng | Тип: Полные

Скриншоты:

Mediainfo:

General
Unique ID : 282361622738645465965835465345658025730 (0xD46CDED50333AA0E902A2D1A7FAC7702)
Complete name : K:\[AniPlay]_Hitori_no_Shita_-_The_Outcast_S2_[WEBRip_1080p]_[Majestic-kun_and_ArtLight_and_Panda_Ksyao]\[AniPlay]_Hitori_no_Shita_-_The_Outcast_S2_[01]_[WEBRip_1080p_x264_AAC]_[Majestic-kun_and_Panda_Ksyao].mkv
Format : Matroska
Format version : Version 4 / Version 2
File size : 575 MiB
Duration : 1 h 45 min
Overall bit rate : 763 kb/s
Encoded date : UTC 2018-03-25 20:04:35
Writing application : mkvmerge v21.0.0 ('Tardigrades Will Inherit The Earth') 64-bit
Writing library : libebml v1.3.5 + libmatroska v1.4.8
Attachments : OpenSans-Semibold.ttf

Video
ID : 1
Format : AVC
Format/Info : Advanced Video Codec
Format profile : High@L4
Format settings, CABAC : Yes
Format settings, ReFrames : 4 frames
Codec ID : V_MPEG4/ISO/AVC
Duration : 23 min 41 s
Bit rate : 3 072 kb/s
Width : 1 920 pixels
Height : 1 080 pixels
Display aspect ratio : 16:9
Frame rate mode : Variable
Frame rate : 23.976 (23976/1000) FPS
Color space : YUV
Chroma subsampling : 4:2:0
Bit depth : 8 bits
Scan type : Progressive
Bits/(Pixel*Frame) : 0.062
Stream size : 520 MiB (90%)
Title : [HorribleSubs]
Writing library : x264 core 120 r2120 0c7dab9
Encoding settings : cabac=1 / ref=4 / deblock=1:1:1 / analyse=0x3:0x113 / me=umh / subme=8 / psy=1 / psy_rd=0.40:0.00 / mixed_ref=1 / me_range=16 / chroma_me=1 / trellis=1 / 8x8dct=1 / cqm=0 / deadzone=21,11 / fast_pskip=1 / chroma_qp_offset=-2 / threads=8 / sliced_threads=0 / nr=0 / decimate=1 / interlaced=0 / bluray_compat=0 / constrained_intra=0 / bframes=3 / b_pyramid=2 / b_adapt=2 / b_bias=0 / direct=3 / weightb=1 / open_gop=0 / weightp=2 / keyint=250 / keyint_min=23 / scenecut=40 / intra_refresh=0 / rc_lookahead=50 / rc=2pass / mbtree=1 / bitrate=3072 / ratetol=1.0 / qcomp=0.60 / qpmin=0 / qpmax=69 / qpstep=4 / cplxblur=20.0 / qblur=0.5 / vbv_maxrate=6144 / vbv_bufsize=15360 / nal_hrd=none / ip_ratio=1.40 / aq=1:0.60
Language : Japanese
Default : Yes
Forced : No

Audio #1
ID : 2
Format : AAC
Format/Info : Advanced Audio Codec
Format profile : LC
Codec ID : A_AAC
Duration : 23 min 41 s
Bit rate : 192 kb/s
Channel(s) : 2 channels
Channel positions : Front: L R
Sampling rate : 48.0 kHz
Frame rate : 46.875 FPS (1024 spf)
Compression mode : Lossy
Stream size : 32.5 MiB (6%)
Title : Russian [Majestic-kun and Panda Ksyao] [AniPlay.TV]
Language : Russian
Default : Yes
Forced : No

Audio #2
ID : 3
Format : AAC
Format/Info : Advanced Audio Codec
Format profile : LC
Codec ID : A_AAC
Duration : 23 min 41 s
Bit rate : 128 kb/s
Channel(s) : 2 channels
Channel positions : Front: L R
Sampling rate : 44.1 kHz
Frame rate : 43.066 FPS (1024 spf)
Compression mode : Lossy
Stream size : 21.7 MiB (4%)
Language : Japanese
Default : No
Forced : No

Text #1
ID : 4
Format : ASS
Codec ID : S_TEXT/ASS
Codec ID/Info : Advanced Sub Station Alpha
Duration : 23 min 32 s
Bit rate : 1 b/s
Count of elements : 4
Compression mode : Lossless
Stream size : 304 Bytes (0%)
Title : Russian [Надписи] [AniPlay.TV]
Language : Russian
Default : Yes
Forced : No

Text #2
ID : 5
Format : ASS
Codec ID : S_TEXT/ASS
Codec ID/Info : Advanced Sub Station Alpha
Duration : 1 h 45 min
Bit rate : 30 b/s
Count of elements : 312
Compression mode : Lossless
Stream size : 23.8 KiB (0%)
Title : Russian [Субтитры] [AniPlay.TV]
Language : Russian
Default : No
Forced : No

Text #3
ID : 6
Format : ASS
Codec ID : S_TEXT/ASS
Codec ID/Info : Advanced Sub Station Alpha
Duration : 23 min 33 s
Bit rate : 133 b/s
Count of elements : 312
Compression mode : Lossless
Stream size : 23.1 KiB (0%)
Language : English
Default : No
Forced : No
Детали торрента:
Название:Hitorinoshita - The Outcast 2 | Hitori no Shita - The Outcast 2 | Один из отвергнутых - Изгой 2 [2018, ONA, 21 из 24] WEBRip 1080p raw+rus
Дата добавления:13 Июн 2018 11:36:35
Размер:11,8 GB
Раздают:1
Качают:2
Форум:Аниме прочее

All rights reserved © 2015-2018