TORRENTS43.COM

Скачать О чём говорят мужчины. Продолжение (2018) WEB-DLRip


О чём говорят мужчины. Продолжение (2018) WEB-DLRip
Производство: Россия, Кинокомпания «Кедр Про», Кинокомпания СТВ, Стрела
Жанр: Комедия

Режиссер: Флюза Фархшатова
Продюсер: Сергей Сельянов, Сергей Петрейков, Леонид Барац
Актеры: Леонид Барац, Александр Демидов, Камиль Ларин, Ростислав Хаит, Алексей Барабаш, Елена Подкаминская, Татьяна Догилева, Леонид Каневский, Кристина Бабушкина, Михаил Прохоров

Описание:
На этот раз Леша, Слава, Камиль и Саша едут в Питер. Причем трое из четверых даже не знают, зачем они туда едут. Но в какой-то момент становится понятно, что неважно - зачем. Важно, что едут. И, конечно, плохо, что дома осталась куча нерешенных проблем, но как же хорошо, что про них можно не думать... хотя бы до понедельника. И еще, конечно, плохо, что отстали от сапсана и пришлось ехать в плацкарте, но как же это неожиданно хорошо... и уютно. А еще неожиданно хорошо бывает выпить в пять утра текилу-бум. Вроде рано... но так вовремя! А как это вдохновляет на всякие свершения!


Возраст: 16+ (зрителям, достигшим 16 лет)
Дата мировой премьеры: 1 марта 2018
Дата российской премьеры: 22 февраля 2018, «Наше Кино»


Продолжительность: 01:34:37
Качество видео: WEB-DLRip
Перевод: Не требуется (русский) iTunes
Субтитры: Отсутствуют

Видео: XviD, 704x384, 1817 kbps
Аудио: 48 kHz, AC3 Dolby Digital, 3/2 (L,C,R,l,r) + LFE ch, ~384 kbps

Mediainfo:

Общее
Полное имя : D:\О.чём.говорят.мужчины.Продолжение.2018.WEB-DLRip.torrents43.comi
Формат : AVI
Формат/Информация : Audio Video Interleave
Размер файла : 1,46 Гбайт
Продолжительность : 1 ч. 34 м.
Общий поток : 2211 Кбит/сек
Программа кодирования : VirtualDubMod 1.5.10.2 (build 2540/release)
Библиотека кодирования : VirtualDubMod build 2540/release

Видео
Идентификатор : 0
Формат : MPEG-4 Visual
Профиль формата : Advanced Simple@L5
Настройки формата : BVOP1 / Custom Matrix
Параметр BVOP формата : 1
Параметр QPel формата : Нет
Параметр GMC формата : Без точки перехода
Параметр матрицы формата : Выборочная
Идентификатор кодека : XVID
Идентификатор кодека/Подсказка : XviD
Продолжительность : 1 ч. 34 м.
Битрейт : 1817 Кбит/сек
Ширина : 704 пикселя
Высота : 384 пикселя
Соотношение сторон : 1,85:1
Частота кадров : 25,000 кадров/сек
Цветовое пространство : YUV
Субдискретизация насыщенности : 4:2:0
Битовая глубина : 8 бит
Тип развёртки : Прогрессивная
Метод сжатия : С потерями
Бит/(Пиксели*Кадры) : 0.269
Размер потока : 1,20 Гбайт (82%)
Библиотека кодирования : XviD 73

Аудио
Идентификатор : 1
Формат : AC-3
Формат/Информация : Audio Coding 3
Идентификатор кодека : 2000
Продолжительность : 1 ч. 34 м.
Вид битрейта : Постоянный
Битрейт : 384 Кбит/сек
Каналы : 6 каналов
Расположение каналов : Front: L C R, Side: L R, LFE
Частота : 48,0 КГц
Частота кадров : 31,250 кадров/сек (1536 SPF)
Битовая глубина : 16 бит
Метод сжатия : С потерями
Размер потока : 260 Мбайт (17%)
Выравнивание : Разделение по промежуткам
Продолжительность промежутка : 40 мс. (1,00 видеокадр)
Время предзагрузки промежутка : 500 мс.
ServiceKind/String : Complete Main
Скриншоты:


Все одноименные релизы в Клубе
Детали торрента:
Название:О чём говорят мужчины. Продолжение (2018) WEB-DLRip
Дата добавления:05 Апр 2018 01:40:13
Размер:1,46 GB
Раздают:213
Качают:0
Форум:Отечественные Новинки (HD*Rip/LQ, DVDRip)

All rights reserved © 2015-2018