TORRENTS43.COM

Скачать Миссия невыполнима: Протокол Фантом / Mission: Impossible - Ghost Protocol (2011) HDRip [H.264] [MP4|1280x534]


Миссия невыполнима: Протокол Фантом / Mission: Impossible - Ghost Protocol (2011) HDRip
Производство: США, ОАЭ, Чехия
Жанр: Боевик, Триллер, Приключения

Режиссер: Брэд Бёрд
Продюсер: Джей Джей Абрамс, Брайан Берк, Том Круз
Актеры: Том Круз, Джереми Реннер, Саймон Пегг, Пола Пэттон, Микаэл Нюквист, Владимир Машков, Самули Эдельманн, Иван Шведов, Анил Капур, Леа Сейду

Описание:
Специальный агент отряда «Миссия невыполнима» Итан Хант и его коллеги несправедливо обвинены в причастности к взрыву Кремля. Президент инициирует «Протокол Фантом», в результате которого спецподразделение ликвидировано, и Итан остается без какой-либо поддержки. Он намерен очистить свое доброе имя и предотвратить новую атаку, но делать это ему придется вместе с командой коллег, истинных мотивов которых он до конца не знает.


Возраст: 12+ (зрителям, достигшим 12 лет)
Рейтинг MPAA: PG-13 (детям до 13 лет просмотр нежелателен)
Дата мировой премьеры: 7 декабря 2011
Дата российской премьеры: 14 декабря 2011

Продолжительность: 02:12:56
Качество видео: HDRip
Перевод: Дублированный (Лицензия)
Субтитры: Русские (форсированные, полные), Английские (форсированные, полные)

Видео: AVC/H.264, 1280x534, ~1128 Kbps
Аудио: AAC, 2 ch, ~128 Kbps

Mediainfo:


Общее
Полное имя : E:\Download\2\Миссия невыполнима Протокол Фантом 2011 720p.mp4
Формат : MPEG-4
Профиль формата : Base Media
Идентификатор кодека : isom (isom/avc1)
Размер файла : 1,17 Гбайт
Продолжительность : 2 ч. 12 м.
Режим общего битрейта : Переменный
Общий поток : 1259 Кбит/сек
Дата кодирования : UTC 2018-03-28 14:34:16
Дата пометки : UTC 2018-03-28 14:34:16

Видео
Идентификатор : 1
Формат : AVC
Формат/Информация : Advanced Video Codec
Профиль формата : High@L3.1
Настройки формата : CABAC / 1 Ref Frames
Параметр CABAC формата : Да
Параметр RefFrames формата : 1 кадр
Идентификатор кодека : avc1
Идентификатор кодека/Информация : Advanced Video Coding
Продолжительность : 2 ч. 12 м.
Битрейт : 1128 Кбит/сек
Максимальный битрейт : 5508 Кбит/сек
Ширина : 1280 пикселей
Высота : 534 пикселя
Соотношение сторон : 2,40:1
Режим частоты кадров : Постоянный
Частота кадров : 23,976 (24000/1001) кадра/сек
Цветовое пространство : YUV
Субдискретизация насыщенности : 4:2:0
Битовая глубина : 8 бит
Тип развёртки : Прогрессивная
Бит/(Пиксели*Кадры) : 0.069
Размер потока : 1,05 Гбайт (90%)
Дата кодирования : UTC 2018-03-28 14:34:16
Дата пометки : UTC 2018-03-28 14:35:32
Цветовой диапазон : Limited
Основные цвета : BT.709
Характеристики трансфера : BT.709
Коэффициенты матрицы : BT.709

Аудио
Идентификатор : 2
Формат : AAC
Формат/Информация : Advanced Audio Codec
Профиль формата : LC
Идентификатор кодека : mp4a-40-2
Продолжительность : 2 ч. 12 м.
Вид битрейта : Переменный
Битрейт : 128 Кбит/сек
Максимальный битрейт : 140 Кбит/сек
Каналы : 2 канала
Расположение каналов : Front: L R
Частота : 48,0 КГц
Частота кадров : 46,875 кадров/сек (1024 SPF)
Метод сжатия : С потерями
Размер потока : 122 Мбайт (10%)
Заголовок : Дублированный (Лицензия)
Язык : Russian
Дата кодирования : UTC 2018-03-28 14:35:16
Дата пометки : UTC 2018-03-28 14:35:32

Текст #1
Идентификатор : 3
Формат : Timed Text
Идентификатор кодека : tx3g
Продолжительность : 1 ч. 59 м.
Вид битрейта : Переменный
Битрейт : 1 бит/сек
Размер потока : 483 байт (0%)
Заголовок : Forced
Язык : Russian
Forced : Нет
Дата кодирования : UTC 2018-03-28 14:35:32
Дата пометки : UTC 2018-03-28 14:35:32

Текст #2
Идентификатор : 4
Формат : Timed Text
Идентификатор кодека : tx3g
Продолжительность : 2 ч. 6 м.
Вид битрейта : Переменный
Битрейт : 75 бит/сек
Размер потока : 69,8 Кбайт (0%)
Заголовок : Full
Язык : Russian
Forced : Нет
Дата кодирования : UTC 2018-03-28 14:35:32
Дата пометки : UTC 2018-03-28 14:35:32

Текст #3
Идентификатор : 5
Формат : Timed Text
Идентификатор кодека : tx3g
Продолжительность : 1 ч. 58 м.
Вид битрейта : Переменный
Битрейт : 2 бит/сек
Размер потока : 2,11 Кбайт (0%)
Заголовок : Forced
Язык : English
Forced : Нет
Дата кодирования : UTC 2018-03-28 14:35:32
Дата пометки : UTC 2018-03-28 14:35:32

Текст #4
Идентификатор : 6
Формат : Timed Text
Идентификатор кодека : tx3g
Продолжительность : 2 ч. 6 м.
Вид битрейта : Переменный
Битрейт : 55 бит/сек
Размер потока : 51,3 Кбайт (0%)
Заголовок : Full
Язык : English
Forced : Нет
Дата кодирования : UTC 2018-03-28 14:35:32
Дата пометки : UTC 2018-03-28 14:35:32
Скриншоты:


Все одноименные релизы в Клубе

Смотреть Online

http://moonwalk.cc/video/c3082a4c4ec5088ee5996519fdb6caf7/iframe
Детали торрента:
Название:Миссия невыполнима: Протокол Фантом / Mission: Impossible - Ghost Protocol (2011) HDRip [H.264] [MP4|1280x534]
Дата добавления:05 Апр 2018 11:19:32
Размер:1,17 GB
Раздают:3
Качают:1
Форум:Мобильное Видео

All rights reserved © 2015-2018