TORRENTS43.COM

Скачать На ринг вызывается... (1979) VHSRip


На ринг вызывается... (1979) VHSRip
Производство: СССР, Узбекфильм
Жанр: Драма, спорт

Режиссер: Эдуард Хачатуров
Актеры: Руфат Рискиев, Обиджан Юнусов, Бакен Кыдыкеева, Игорь Ледогоров, Эдуардс Павулс, Мурад Раджабов, Шухрат Иргашев, Фарида Муминова, Майя Эглите, Наби Рахимов, Джалол Юсупов, Абдрашид Абдрахманов, Алина Либерзон, Нилуфар Эргашева, Рустам Туляганов, Харийс Лиепиньш, Бахтияр Закиров

Описание:
О Руфате Кудратове, его трудном пути к успеху, победе и славе боксера. В главной роли снялся заслуженный мастер спорта Руфат Рискиев.


Возраст: этот продукт не был классифицирован

Продолжительность: 01:25:13
Качество видео: VHSRip

Видео: Xvid, 640x288, ~1069 Kbps
Аудио: MP3, 2 ch, 128 Kbps

Mediainfo:


Общее
Полное имя : Z:\На ринг вызывается... (1979) VHSRip.avi
Формат : AVI
Формат/Информация : Audio Video Interleave
Размер файла : 737 Мбайт
Продолжительность : 1 ч. 25 м.
Общий поток : 1209 Кбит/сек
Программа кодирования : Lavf56.40.101

Видео
Идентификатор : 0
Формат : xvid
Идентификатор кодека : xvid
Продолжительность : 1 ч. 25 м.
Битрейт : 1069 Кбит/сек
Ширина : 640 пикселей
Высота : 288 пикселей
Соотношение сторон : 2,222
Частота кадров : 25,000 кадров/сек
Тип развёртки : Прогрессивная
Бит/(Пиксели*Кадры) : 0.232
Размер потока : 651 Мбайт (88%)

Аудио
Идентификатор : 1
Формат : MPEG Audio
Версия формата : Version 1
Профиль формата : Layer 3
Настройки формата : Joint stereo / MS Stereo
Идентификатор кодека : 55
Идентификатор кодека/Подсказка : MP3
Продолжительность : 1 ч. 25 м.
Вид битрейта : Постоянный
Битрейт : 128 Кбит/сек
Каналы : 2 канала
Частота : 44,1 КГц
Метод сжатия : С потерями
Размер потока : 78,0 Мбайт (11%)
Выравнивание : Соединение по промежуткам
Продолжительность промежутка : 26 мс. (0,65 видеокадр)
Время предзагрузки промежутка : 26 мс.
Библиотека кодирования : LAME3.99.5

Дополнительная информация:

Диплом за исполнение мужской роли (Р.Рискиев) на ВКФ спортивных фильмов во Фрунзе-81.
Скриншоты:


Все одноименные релизы в Клубе
Детали торрента:
Название:На ринг вызывается... (1979) VHSRip
Дата добавления:06 Апр 2018 17:21:59
Размер:737 MB
Раздают:2
Качают:0
Форум:Старые Отечественные Фильмы (HD*Rip/LQ, DVDRip, SATRip, VHSRip)

All rights reserved © 2015-2018