TORRENTS43.COM

Скачать Лемони Сникет: 33 несчастья / A Series of Unfortunate Events (2018) WEBRip (сезон 2, серии 1-10 из 10) LostFilm


Лемони Сникет: 33 несчастья / A Series of Unfortunate Events (2018) WEBRip (сезон 2, серии 1-10 из 10)
«Secrets will be revealed, one unfortunate event at a time»

Производство: США / Sonnenfeld Company, The, What is the Question?, Paramount Television
Жанр: драма, приключения, семейный

Режиссер: Барри Зонненфельд, Бо Уэлш, Аллан Аркуш, Лони Перистер
Актеры: Нил Патрик Харрис, Усман Элли, Мэттью Кардаропле, Джон ДеСантис, Луи Хайнс, Малина Вайсман, Сара Каннинг, Патрик Китинг, Кэтрин О’Хара, Элфри Вудард и др.

Описание:
Второй сезон американского драматического сериала. В основе сюжета серия детских книг Дэниела Хэндлера (псевдоним Лемони Сникет).



Продолжительность: ~00:48:00 серия
Качество видео: WEBRip
Перевод: Многоголосый закадровый, профессиональный - LostFilm

Видео: XviD, 720x352, ~1465 kbps
Аудио 1: MP3, 48,0 kHz, 2 ch, 128 kbps — русский, многоголосый закадровый
Аудио 2: MP3, 48,0 kHz, 2 ch, 128 kbps — английский

MediaInfo


Общее
Полное имя : D:\Лемони Сникет 33 несчастья (сезон 2) A Series of Unfortunate Events (2018) WEBRip - LostFilm\A.Series.of.Unfortunate.Events.S02E01.WEBRip.Rus.Eng.DV.LostFilm.avi
Формат : AVI
Формат/Информация : Audio Video Interleave
Размер файла : 576 Мбайт
Продолжительность : 46 м. 24 с.
Общий поток : 1735 Кбит/сек
Название фильма : A.Series.of.Unfortunate.Events.S02E01.WEBRip.Rus.Eng.DV.LostFilm / torrents43.com />Программа кодирования : VirtualDubModRus 1.5.10.2 (build 2542/release)
Библиотека кодирования : VirtualDubMod build 2542/release

Видео
Идентификатор : 0
Формат : MPEG-4 Visual
Профиль формата : Advanced Simple@L5
Настройки формата : BVOP2
Параметр BVOP формата : 2
Параметр QPel формата : Нет
Параметр GMC формата : Без точки перехода
Параметр матрицы формата : Default (H.263)
Идентификатор кодека : XVID
Идентификатор кодека/Подсказка : XviD
Продолжительность : 46 м. 24 с.
Битрейт : 1465 Кбит/сек
Ширина : 720 пикселей
Высота : 352 пикселя
Соотношение сторон : 2,045
Частота кадров : 24,000 кадра/сек
Цветовое пространство : YUV
Субдискретизация насыщенности : 4:2:0
Битовая глубина : 8 бит
Тип развёртки : Прогрессивная
Метод сжатия : С потерями
Бит/(Пиксели*Кадры) : 0.241
Размер потока : 486 Мбайт (84%)
Заголовок : Rip by DriverV / torrents43.com />Библиотека кодирования : XviD 67

Аудио #1
Идентификатор : 1
Формат : MPEG Audio
Версия формата : Version 1
Профиль формата : Layer 3
Настройки формата : Joint stereo / MS Stereo
Идентификатор кодека : 55
Идентификатор кодека/Подсказка : MP3
Продолжительность : 46 м. 24 с.
Вид битрейта : Постоянный
Битрейт : 128 Кбит/сек
Каналы : 2 канала
Частота : 48,0 КГц
Метод сжатия : С потерями
Размер потока : 42,5 Мбайт (7%)
Выравнивание : Соединение по промежуткам
Продолжительность промежутка : 42 мс. (1,00 видеокадр)
Время предзагрузки промежутка : 504 мс.

Аудио #2
Идентификатор : 2
Формат : MPEG Audio
Версия формата : Version 1
Профиль формата : Layer 3
Настройки формата : Joint stereo / MS Stereo
Идентификатор кодека : 55
Идентификатор кодека/Подсказка : MP3
Продолжительность : 46 м. 24 с.
Вид битрейта : Постоянный
Битрейт : 128 Кбит/сек
Каналы : 2 канала
Частота : 48,0 КГц
Метод сжатия : С потерями
Размер потока : 42,5 Мбайт (7%)
Выравнивание : Соединение по промежуткам
Продолжительность промежутка : 42 мс. (1,00 видеокадр)
Время предзагрузки промежутка : 504 мс.

Список серий

01. The Austere Academy: Part One / Изуверский интернат. Часть первая
02. The Austere Academy: Part Two / Изуверский интернат. Часть вторая
03. The Ersatz Elevator: Part One / Липовый лифт. Часть первая
04. The Ersatz Elevator: Part Two / Липовый лифт. Часть вторая
05. The Vile Village: Part One / Дрянная деревня. Часть первая
06. The Vile Village: Part Two / Дрянная деревня. Часть вторая
07. The Hostile Hospital: Part One / Кошмарная клиника. Часть первая
08. The Hostile Hospital: Part Two / Кошмарная клиника. Часть вторая
09. The Carnivorous Carnival: Part One / Кровожадный карнавал. Часть первая
10. The Carnivorous Carnival: Part Two / Кровожадный карнавал. Часть вторая

Дополнительная информация

"Чистый" кадр. Вступительная заставка и логотип LostFilm отсутствуют.
Скриншоты:



Все одноименные релизы в Клубе

Смотреть Online

http://moonwalk.cc/video/8dc9347cd865fc36e3be50318f4a95c9/iframe
Детали торрента:
Название:Лемони Сникет: 33 несчастья / A Series of Unfortunate Events (2018) WEBRip (сезон 2, серии 1-10 из 10) LostFilm
Дата добавления:03 Май 2018 05:37:22
Размер:5,46 GB
Раздают:8
Качают:1
Форум:Зарубежные сериалы

All rights reserved © 2015-2018