TORRENTS43.COM

Скачать Улица (2018) HDTVRip (сезон 2, серии 1-21 из ?) (обновляемая)


Улица (2018) HDTVRip (сезон 2, серии 1-21 из ?)
Производство: Россия / ТНТ, ГудСториМедиа
Жанр: драма, мелодрама, комедия

Режиссер: Жанна Кадникова, Николай Бурлак, Михаил Соловьёв
Актеры: Егор Клинаев, Ольга Баранова, Владимир Хацкевич, Екатерина Седик, Павел Савинков, Сергей Змичеревский, Артемий Падалка, Марина Богатова, Ксения Жданова, Марта Дромашко и др.

Описание:
«Улица» — это история жителей одной из улиц спального района большого города. Школьники и студенты, домохозяйки и продавцы, олигархи и простые рабочие — здесь встретятся более 30 персонажей разного возраста и социального статуса, у каждого из них своя история. В большой Вселенной «Улицы» нет главных и второстепенных героев, здесь есть бурная жизнь с ее радостями, горестями, казусами и косяками, страхами, любовными переживаниями и трагедиями. Это история про всех нас и наших соседей.


Возраст: 16+ (зрителям, достигшим 16 лет)

Продолжительность: ~ 00:24:00 серия
Качество видео: HDTVRip

Видео: Xvid, 720x400 (16:9), ~1540 Kbps
Аудио: MP3, 2 ch, 128 Kbps

Mediainfo:


General
Complete name : F:\СЕРИАЛЫ\УЛИЦА\Ulica.s02.2018.XviD.HDTVRip.GeneralFilm\Ulica.s02.e01.avi
Format : AVI
Format/Info : Audio Video Interleave
File size : 278 MiB
Duration : 23 min 6 s
Overall bit rate : 1 685 kb/s
Writing application : VirtualDubMod 1.5.10.3 | www.virtualdub-fr.org || (build 2550/release)
Writing library : VirtualDubMod build 2550/release

Video
ID : 0
Format : MPEG-4 Visual
Format profile : Advanced Simple@L5
Format settings : BVOP1
Format settings, BVOP : 1
Format settings, QPel : No
Format settings, GMC : No warppoints
Format settings, Matrix : Default (H.263)
Codec ID : XVID
Codec ID/Hint : XviD
Duration : 23 min 6 s
Bit rate : 1 547 kb/s
Width : 720 pixels
Height : 400 pixels
Display aspect ratio : 16:9
Frame rate : 25.000 FPS
Color space : YUV
Chroma subsampling : 4:2:0
Bit depth : 8 bits
Scan type : Progressive
Compression mode : Lossy
Bits/(Pixel*Frame) : 0.215
Stream size : 256 MiB (92%)
Writing library : XviD 73

Audio
ID : 1
Format : MPEG Audio
Format version : Version 1
Format profile : Layer 3
Codec ID : 55
Codec ID/Hint : MP3
Duration : 23 min 6 s
Bit rate mode : Constant
Bit rate : 128 kb/s
Channel(s) : 2 channels
Sampling rate : 48.0 kHz
Frame rate : 41.667 FPS (1152 SPF)
Compression mode : Lossy
Stream size : 21.2 MiB (8%)
Alignment : Aligned on interleaves
Interleave, duration : 40 ms (1.00 video frame)
Interleave, preload duratio : 504 ms
Writing library : LAME3.99r
Encoding settings : -m s -V 4 -q 0 -lowpass 17 -b 128

Раздача ведётся путём добавления новых серий:

Внимание! Раздача ведётся путём добавления новых серий; при каждом добавлении создаётся новый торрент.
Чтобы начать докачку новой серии, пользователям необходимо сделать следующее:
1. Остановить скачивание;
2. Удалить старый торрент у себя из клиента (старые серии удалять не надо);
3. Скачать новый торрент и запустить его у себя в клиенте вместо старого, при этом указать клиенту путь в старую папку куда и должно происходить скачивание новых серий. Ваш клиент при этом должен произвести хеширование (проверку) старой папки и будет докачивать только те серии, которых у вас ещё нет. Старые серии при этом не удаляются, а продолжают раздаваться! Eсли вы уже удалили старые серии, то предотвратить повторную закачку старых серий можно, отжав галочку в соответствующих местах при запуске нового торрента.
Скриншоты:


Все одноименные релизы в Клубе

Смотреть Online

http://37.220.36.15/video/165ecc8bc52e9630/iframe
Детали торрента:
Название:Улица (2018) HDTVRip (сезон 2, серии 1-21 из ?) (обновляемая)
Дата добавления:18 Май 2018 20:09:55
Размер:5,71 GB
Раздают:15
Качают:14
Форум:Отечественные сериалы

All rights reserved © 2015-2018