TORRENTS43.COM

Скачать Улица (2018) HDTV [H.264/1080p-LQ] (сезон 2, серии 1-21 из ?) (обновляемая)


Улица (2018) HDTV [H.264/1080p-LQ] (сезон 2, серии 1-21 из ?)
Производство: Россия / ТНТ, ГудСториМедиа
Жанр: драма, мелодрама, комедия

Режиссер: Жанна Кадникова, Николай Бурлак, Михаил Соловьёв
Актеры: Егор Клинаев, Ольга Баранова, Владимир Хацкевич, Екатерина Седик, Павел Савинков, Сергей Змичеревский, Артемий Падалка, Марина Богатова, Ксения Жданова, Марта Дромашко и др.

Описание:
«Улица» — это история жителей одной из улиц спального района большого города. Школьники и студенты, домохозяйки и продавцы, олигархи и простые рабочие — здесь встретятся более 30 персонажей разного возраста и социального статуса, у каждого из них своя история. В большой Вселенной «Улицы» нет главных и второстепенных героев, здесь есть бурная жизнь с ее радостями, горестями, казусами и косяками, страхами, любовными переживаниями и трагедиями. Это история про всех нас и наших соседей.


Возраст: 16+ (зрителям, достигшим 16 лет)

Продолжительность: ~00:24:00 серия
Качество видео: HDTV

Видео: AVC/H.264, 1920x1080 (16:9), ~7867 Kbps
Аудио: MP2, 2 ch, 192 Kbps

Mediainfo:


General
ID : 1 (0x1)
Complete name : F:\СЕРИАЛЫ\УЛИЦА\Ulica.s02.2018.HDTV.(1080i).Nikolspup\Ulica.s02e01.2018.HDTV.(1080i).Nikolspup.ts
Format : MPEG-TS
File size : 1.35 GiB
Duration : 23 min 6 s
Overall bit rate mode : Variable
Overall bit rate : 8 349 kb/s

Video
ID : 256 (0x100)
Menu ID : 1 (0x1)
Format : AVC
Format/Info : Advanced Video Codec
Format profile : High@L4.1
Format settings : CABAC / 3 Ref Frames
Format settings, CABAC : Yes
Format settings, ReFrames : 3 frames
Codec ID : 27
Duration : 23 min 6 s
Bit rate mode : Constant
Bit rate : 7 867 kb/s
Width : 1 920 pixels
Height : 1 080 pixels
Display aspect ratio : 16:9
Frame rate : 25.000 FPS
Standard : PAL
Color space : YUV
Chroma subsampling : 4:2:0
Bit depth : 8 bits
Scan type : Progressive
Bits/(Pixel*Frame) : 0.152
Stream size : 1.25 GiB (93%)
Color range : Limited
Color primaries : BT.709
Transfer characteristics : BT.709
Matrix coefficients : BT.709

Audio
ID : 257 (0x101)
Menu ID : 1 (0x1)
Format : MPEG Audio
Format version : Version 1
Format profile : Layer 2
Codec ID : 3
Duration : 23 min 6 s
Bit rate mode : Constant
Bit rate : 192 kb/s
Channel(s) : 2 channels
Sampling rate : 48.0 kHz
Frame rate : 41.667 FPS (1152 SPF)
Compression mode : Lossy
Stream size : 31.7 MiB (2%)
Language : English

Раздача ведётся путём добавления новых серий:

Внимание! Раздача ведётся путём добавления новых серий; при каждом добавлении создаётся новый торрент.
Чтобы начать докачку новой серии, пользователям необходимо сделать следующее:
1. Остановить скачивание;
2. Удалить старый торрент у себя из клиента (старые серии удалять не надо);
3. Скачать новый торрент и запустить его у себя в клиенте вместо старого, при этом указать клиенту путь в старую папку куда и должно происходить скачивание новых серий. Ваш клиент при этом должен произвести хеширование (проверку) старой папки и будет докачивать только те серии, которых у вас ещё нет. Старые серии при этом не удаляются, а продолжают раздаваться! Eсли вы уже удалили старые серии, то предотвратить повторную закачку старых серий можно, отжав галочку в соответствующих местах при запуске нового торрента.
Скриншоты:


Все одноименные релизы в Клубе

Смотреть Online

http://moonwalk.cc/video/077d9af020fe0979/iframe
Детали торрента:
Название:Улица (2018) HDTV [H.264/1080p-LQ] (сезон 2, серии 1-21 из ?) (обновляемая)
Дата добавления:18 Май 2018 20:08:51
Размер:25,9 GB
Раздают:10
Качают:7
Форум:Отечественные сериалы

All rights reserved © 2015-2018