TORRENTS43.COM

Скачать Пространство / Экспансия / The Expanse (2018) WEB-DL [H.264/1080p-LQ] (сезон 3, серии 1-7 из 13) OmskBird (обновляемая)


Пространство / Экспансия / The Expanse (2018) WEB-DL [H.264/1080p-LQ] (сезон 3, серии 1-7 из 13) OmskBird
Производство: США, Канада / Alcon Entertainment, Sean Daniel Company
Жанр: фантастика, триллер, драма, детектив

Режиссер: Роберт Либерман, Терри МакДонаф, Джефф Вулнаф
Актеры: Томас Джейн, Стивен Стрейт, Кэс Анвар, Доминик Типпер, Уэс Чэтэм, Шохре Агдашлу, Афина Карканис, Чад Л. Коулмэн, Дрю Кэрримор и др.

Описание:
Через двести лет от дня сегодняшнего некий сыщик, привыкший всё доводить до конца при любых обстоятельствах, в рамках расследования дела об исчезновении молодой женщины оказывается на борту звездолета, капитан которого решает помочь детективу в его непростом деле. Величайший заговор в истории человечества гарантируется, как и его непременное раскрытие. По мотивам романа «Пробуждение Левиафана» Джеймса Кори.



Релиз от: OmskBird

Продолжительность: ~00:43:00 серия
Качество видео: WEB-DL
Перевод: Многоголосый закадровый, профессиональный - OmskBird
Субтитры: английские
Реклама: присутствуют аудио вставки рекламы

Видео: AVC/H.264, 1920x1080 (16:9), ~5 891 Kbps
Аудио # 1: AC3, 6 ch, 640 Kbps - русский, многоголосый закадровый
Аудио # 2: AC3, 6 ch, 640 Kbps - английский

Mediainfo:


General
Unique ID : 105317105914832140778041372088718352723 (0x4F3B56381D9EF1BD45B4ADA851146153)
Complete name : G:\The.Expanse.S03.1080p.WEB-DL.OmskBird\The.Expanse.S03E01.1080p.WEB-DL.OmskBird.mkv
Format : Matroska
Format version : Version 4 / Version 2
File size : 2.23 GiB
Duration : 43mn 37s
Overall bit rate mode : Variable
Overall bit rate : 7 316 Kbps
Encoded date : UTC 2018-04-13 06:40:48
Writing application : mkvmerge v21.0.0 ('Tardigrades Will Inherit The Earth') 64-bit
Writing library : libebml v1.3.5 + libmatroska v1.4.8
Cover : Yes
Attachments : small_cover.jpg / small_cover_land.jpg / cover.jpg / cover_land.jpg

Video
ID : 1
Format : AVC
Format/Info : Advanced Video Codec
Format profile : High@L4
Format settings, CABAC : Yes
Format settings, ReFrames : 4 frames
Codec ID : V_MPEG4/ISO/AVC
Duration : 43mn 37s
Bit rate mode : Variable
Bit rate : 5 891 Kbps
Maximum bit rate : 15.0 Mbps
Width : 1 920 pixels
Height : 1 080 pixels
Display aspect ratio : 16:9
Frame rate mode : Constant
Frame rate : 23.976 (24000/1001) fps
Color space : YUV
Chroma subsampling : 4:2:0
Bit depth : 8 bits
Scan type : Progressive
Bits/(Pixel*Frame) : 0.118
Stream size : 1.79 GiB (81%)
Language : English
Default : Yes
Forced : No
Color range : Limited
Color primaries : BT.709
Transfer characteristics : BT.709
Matrix coefficients : BT.709

Audio #1
ID : 2
Format : AC-3
Format/Info : Audio Coding 3
Mode extension : CM (complete main)
Format settings, Endianness : Big
Codec ID : A_AC3
Duration : 43mn 37s
Bit rate mode : Constant
Bit rate : 640 Kbps
Channel(s) : 6 channels
Channel positions : Front: L C R, Side: L R, LFE
Sampling rate : 48.0 KHz
Frame rate : 31.250 fps (1536 spf)
Compression mode : Lossy
Stream size : 200 MiB (9%)
Title : OmskBird
Language : Russian
Default : Yes
Forced : No

Audio #2
ID : 3
Format : AC-3
Format/Info : Audio Coding 3
Mode extension : CM (complete main)
Format settings, Endianness : Big
Codec ID : A_AC3
Duration : 43mn 37s
Bit rate mode : Constant
Bit rate : 640 Kbps
Channel(s) : 6 channels
Channel positions : Front: L C R, Side: L R, LFE
Sampling rate : 48.0 KHz
Frame rate : 31.250 fps (1536 spf)
Compression mode : Lossy
Stream size : 200 MiB (9%)
Title : eng
Language : English
Default : No
Forced : No

Text
ID : 4
Format : UTF-8
Codec ID : S_TEXT/UTF8
Codec ID/Info : UTF-8 Plain Text
Title : English
Language : English
Default : No
Forced : No

Раздача ведётся путём добавления новых серий

Раздача ведётся путём добавления новых серий; при каждом добавлении создаётся новый торрент. Чтобы начать докачку новой серии, пользователям необходимо сделать следующее:
(1) остановить скачивание,
(2) удалить старый торрент у себя из клиента (старые серии удалять не надо),
(3) скачать новый торрент и запустить его у себя в клиенте вместо старого, при этом указать клиенту путь в старую папку куда и должно происходить скачивание новых серий.

Ваш клиент при этом должен произвести хеширование (проверку) старой папки (если не производит сам - помогите ему сделать это), и будет докачивать только те серии которых у вас ещё нет. Старые серии при этом не удаляются, а продолжают раздаваться!

Eсли вы уже удалили старые серии, то предотвратить повторную закачку старых серий можно, отжав галочку в соответствующих местах при запуске нового торрента. По возможности, желательно не удалять старые серии как можно дольше чтобы релизёр не столько продолжал раздавать старые серии, а смог сконцентрироваться на новых.
Скриншоты:


Все одноименные релизы в Клубе

Смотреть Online

http://moonwalk.cc/video/36c54dd4b9bcd900/iframe
Детали торрента:
Название:Пространство / Экспансия / The Expanse (2018) WEB-DL [H.264/1080p-LQ] (сезон 3, серии 1-7 из 13) OmskBird (обновляемая)
Дата добавления:25 Май 2018 13:41:46
Размер:14 GB
Раздают:30
Качают:36
Форум:Зарубежные сериалы

All rights reserved © 2015-2018