TORRENTS43.COM

Скачать Лига справедливости / Justice League (2017) DVD5 [Custom]


Лига справедливости / Justice League (2017) DVD5 «Нельзя спасти мир в одиночку»
Производство: США, Великобритания, Канада / Warner Bros. Pictures, Access Entertainment, DC Comics
Жанр: Фантастика, фэнтези, боевик, приключения

Режиссер: Зак Снайдер
Продюсер: Бен Аффлек, Мэдисон Эйнли, Джон Берг
Актеры: Бен Аффлек, Генри Кавилл, Эми Адамс, Галь Гадот, Эзра Миллер, Джейсон Момоа, Рэй Фишер, Джереми Айронс, Дайан Лэйн, Конни Нильсен

Описание:
Брюс Уэйн, вдохновленный самопожертвованием Супермена, вновь обретает веру в человечество. Он заручается поддержкой новой союзницы, Дианы Принс, чтобы сразиться с еще более могущественным противником. Бэтмен и Чудо-Женщина быстро набирают команду сверхлюдей для борьбы с пробудившейся угрозой. Но несмотря на уникальный состав отряда супергероев — Бэтмен, Чудо-Женщина, Аквамэн, Киборг и Флэш, — быть может, спасать планету от вторжения катастрофических масштабов уже слишком поздно.


Возраст: 16+ (зрителям, достигшим 16 лет)
Рейтинг MPAA: PG-13 (детям до 13 лет просмотр нежелателен)
Дата мировой премьеры: 13 ноября 2017
Дата премьеры в России: 16 ноября 2017, «Каро-Премьер»


Продолжительность: 01:55:07
Качество видео: DVD5
Перевод: Дублированный (лицензия)
Субтитры: Русские, английские, чешские, эстонские, исландские, латышские, литовские, португальские

Видео: MPEG-2, 720x576@1024x576 (PAL 16:9), ~4500 Kbps
Аудио 1: AC3 5.1, 384 Kbps (Английский - оригинал)
Аудио 2: AC3 5.1, 384 Kbps (Русский - дублированный)

DVDInfo:

Title: Justice League (2017) DVD5
Size: 4.36 Gb ( 4 568 230 KBytes ) - DVD-5
Enabled regions: 1, 2, 3, 4, 5, 6, 7, 8

VTS_01 :
Play Length: 01:55:07+00:00:01
Video: PAL 16:9 (720x576) VBR, Auto Pan&Scan
Audio:
English (Dolby AC3, 6 ch)
Russian (Dolby AC3, 6 ch)
Subtitles:
English
Czech(Ceske)
Estonian
Islenska
Latvian
Lithuanian
Portugues
Russian
Czech(Ceske)
Russian

Menu Video:
PAL 16:9 (720x576) VBR
Auto Letterboxed
Menu Subtitles:
Not specified
Menu Language Unit :
Root Menu

MediaInfo:

Общее
Полное имя : V:\Torrents\Justice League (2017) DVD5\VIDEO_TS\VTS_01_2.VOB
Формат : MPEG-PS
Размер файла : 1024 Мбайт
Продолжительность : 26 м. 26 с.
Режим общего битрейта : Переменный
Общий поток : 5413 Кбит/сек

Видео
Идентификатор : 224 (0xE0)
Формат : MPEG Video
Версия формата : Version 2
Профиль формата : Main@Main
Настройки формата : CustomMatrix / BVOP
Параметр BVOP формата : Да
Параметр матрицы формата : Выборочная
Параметр GOP формата : Variable
Структура изображения : Frame
Продолжительность : 26 м. 26 с.
Вид битрейта : Переменный
Битрейт : 4538 Кбит/сек
Максимальный битрейт : 8228 Кбит/сек
Ширина : 720 пикселей
Высота : 576 пикселей
Соотношение сторон : 16:9
Частота кадров : 25,000 кадров/сек
Стандарт вещания : PAL
Цветовое пространство : YUV
Субдискретизация насыщенности : 4:2:0
Битовая глубина : 8 бит
Тип развёртки : Чересстрочная
Порядок развёртки : Верхнее поле первое
Метод сжатия : С потерями
Бит/(Пиксели*Кадры) : 0.438
Временной код первого кадра : 00:26:57:09
Оригинал временного кода : Group of pictures header
Размер потока : 858 Мбайт (84%)

Аудио #1
Идентификатор : 189 (0xBD)-128 (0x80)
Формат : AC-3
Формат/Информация : Audio Coding 3
Параметр Endianness формата : Big
Режим смешивания : DVD-Video
Продолжительность : 26 м. 26 с.
Вид битрейта : Постоянный
Битрейт : 384 Кбит/сек
Каналы : 6 каналов
Расположение каналов : Front: L C R, Side: L R, LFE
Частота : 48,0 КГц
Частота кадров : 31,250 кадров/сек (1536 SPF)
Битовая глубина : 16 бит
Метод сжатия : С потерями
Задержка видео : -288 мс.
Размер потока : 72,6 Мбайт (7%)
ServiceKind/String : Complete Main

Аудио #2
Идентификатор : 189 (0xBD)-130 (0x82)
Формат : AC-3
Формат/Информация : Audio Coding 3
Параметр Endianness формата : Big
Режим смешивания : DVD-Video
Продолжительность : 26 м. 26 с.
Вид битрейта : Постоянный
Битрейт : 384 Кбит/сек
Каналы : 6 каналов
Расположение каналов : Front: L C R, Side: L R, LFE
Частота : 48,0 КГц
Частота кадров : 31,250 кадров/сек (1536 SPF)
Битовая глубина : 16 бит
Метод сжатия : С потерями
Задержка видео : -288 мс.
Размер потока : 72,6 Мбайт (7%)
ServiceKind/String : Complete Main

Текст #1
Идентификатор : 189 (0xBD)-32 (0x20)
Формат : RLE
Формат/Информация : Run-length encoding
Режим смешивания : DVD-Video
Задержка видео : 1 с. 720 мс.

Текст #2
Идентификатор : 189 (0xBD)-33 (0x21)
Формат : RLE
Формат/Информация : Run-length encoding
Режим смешивания : DVD-Video
Задержка видео : 1 с. 960 мс.

Текст #3
Идентификатор : 189 (0xBD)-34 (0x22)
Формат : RLE
Формат/Информация : Run-length encoding
Режим смешивания : DVD-Video
Задержка видео : 1 с. 720 мс.

Текст #4
Идентификатор : 189 (0xBD)-35 (0x23)
Формат : RLE
Формат/Информация : Run-length encoding
Режим смешивания : DVD-Video
Задержка видео : 1 с. 800 мс.

Текст #5
Идентификатор : 189 (0xBD)-36 (0x24)
Формат : RLE
Формат/Информация : Run-length encoding
Режим смешивания : DVD-Video
Задержка видео : 1 с. 680 мс.

Текст #6
Идентификатор : 189 (0xBD)-37 (0x25)
Формат : RLE
Формат/Информация : Run-length encoding
Режим смешивания : DVD-Video
Задержка видео : 1 с. 640 мс.

Текст #7
Идентификатор : 189 (0xBD)-38 (0x26)
Формат : RLE
Формат/Информация : Run-length encoding
Режим смешивания : DVD-Video
Задержка видео : 1 с. 720 мс.

Текст #8
Идентификатор : 189 (0xBD)-39 (0x27)
Формат : RLE
Формат/Информация : Run-length encoding
Режим смешивания : DVD-Video
Задержка видео : -160 мс.

Меню

Доп. информация:

Исходник: Лига справедливости / Justice League (2017) DVD9 (R2)
Удалены: предупреждающие надписи, доп. материалы, чешская звуковая дорожка (в меню кнопки затёрты).
Команды диска переписаны заново, оставлен один VTS.
Видео сжато на 23,1%.
Меню: статичное, недействующие кнопки затерты и закрыты.
Обработка и сжатие: DVD ReMake Pro + DVD Rebuilder + CCE SP2 [7 проходов] + Работа с меню (Adobe PhotoShop и MuxMan).

Скриншоты меню:

Скриншоты:

Все одноименные релизы в Клубе

Смотреть Online

http://moonwalk.cc/video/7b5e1c7d85575c22/iframe
Детали торрента:
Название:Лига справедливости / Justice League (2017) DVD5 [Custom]
Дата добавления:16 Апр 2018 15:01:24
Размер:4,36 GB
Раздают:15
Качают:0
Форум:Новинки (DVD)

All rights reserved © 2015-2018