TORRENTS43.COM

Скачать Убийство в Восточном экспрессе / Murder on the Orient Express (2017) DVD5 [Custom]


Убийство в Восточном экспрессе / Murder on the Orient Express (2017) DVD5 «Под подозрением каждый»
Производство: США, Великобритания, Мальта, Франция, Канада, Новая Зеландия / 20th Century Fox Film Corporation, Kinberg Genre, Latina Pictures
Жанр: Драма, криминал, детектив

Режиссер: Кеннет Брана
Продюсер: Уинстон Аццопарди, Кеннет Брана, Марк Гордон
Актеры: Кеннет Брана, Пенелопа Крус, Уиллем Дефо, Джуди Денч, Джонни Депп, Джош Гад, Дерек Джекоби, Лесли Одом мл., Мишель Пфайффер, Дэйзи Ридли

Описание:
Путешествие на одном из самых роскошных поездов Европы неожиданно превращается в одну из самых стильных и захватывающих загадок в истории. Фильм рассказывает историю тринадцати пассажиров поезда, каждый из которых находится под подозрением. И только сыщик должен как можно быстрее разгадать головоломку, прежде чем преступник нанесет новый удар.


Возраст: 16+ (зрителям, достигшим 16 лет)
Рейтинг MPAA: PG-13 (детям до 13 лет просмотр нежелателен)
Дата мировой премьеры: 3 ноября 2017
Дата премьеры в России: 9 ноября 2017, «Двадцатый Век Фокс СНГ»


Продолжительность: 01:49:21
Качество видео: DVD5
Перевод: Дублированный (лицензия)
Субтитры: Русские, английские, датские, финские, итальянские, норвежские, шведские, эстонские, латышские, литовские, украинские

Видео: MPEG-2, 720x576@1024x576 (PAL 16:9), ~4800 Kbps
Аудио 1: AC3 5.1, 448 Kbps (Английский - оригинал)
Аудио 2: AC3 5.1, 384 Kbps (Русский - дублированный)

DVDInfo:

Title: Murder on the Orient Express (2017) DVD5
Size: 4.33 Gb ( 4 542 818 KBytes ) - DVD-5
Enabled regions: 1, 2, 3, 4, 5, 6, 7, 8

VTS_01 :
Play Length: 01:49:21
Video: PAL 16:9 (720x576) VBR, Auto Pan&Scan
Audio:
English (Dolby AC3, 6 ch)
Russian (Dolby AC3, 6 ch)
Subtitles:
English
Dansk
Suomi
Italiano
Norsk
Russian
Svenska
Estonian
Latvian
Lithuanian
Ukrainian
English
Dansk
Suomi
Italiano
Norsk
Russian
Svenska
English
Italiano
Russian
Ukrainian

Menu Video:
PAL 16:9 (720x576) VBR
Auto Pan&Scan
Menu Subtitles:
Not specified
Menu English Language Unit :
Root Menu
Subpicture Menu
Audio Menu
Angle menu
Chapter (PTT) Menu

MediaInfo:

Общее
Полное имя : V:\Torrents\Murder on the Orient Express (2017) DVD5\VIDEO_TS\VTS_01_2.VOB
Формат : MPEG-PS
Размер файла : 1024 Мбайт
Продолжительность : 24 м. 56 с.
Режим общего битрейта : Переменный
Общий поток : 5742 Кбит/сек

Видео
Идентификатор : 224 (0xE0)
Формат : MPEG Video
Версия формата : Version 2
Профиль формата : Main@Main
Настройки формата : CustomMatrix / BVOP
Параметр BVOP формата : Да
Параметр матрицы формата : Выборочная
Параметр GOP формата : Variable
Продолжительность : 24 м. 56 с.
Вид битрейта : Переменный
Битрейт : 4796 Кбит/сек
Максимальный битрейт : 7026 Кбит/сек
Ширина : 720 пикселей
Высота : 576 пикселей
Соотношение сторон : 16:9
Частота кадров : 25,000 кадров/сек
Стандарт вещания : PAL
Цветовое пространство : YUV
Субдискретизация насыщенности : 4:2:0
Битовая глубина : 8 бит
Тип развёртки : Прогрессивная
Порядок развёртки : Верхнее поле первое
Метод сжатия : С потерями
Бит/(Пиксели*Кадры) : 0.463
Временной код первого кадра : 00:25:07:17
Оригинал временного кода : Group of pictures header
GOP, открыто/закрыто : Открыто
Размер потока : 855 Мбайт (84%)

Аудио #1
Идентификатор : 189 (0xBD)-128 (0x80)
Формат : AC-3
Формат/Информация : Audio Coding 3
Параметр Endianness формата : Big
Режим смешивания : DVD-Video
Продолжительность : 24 м. 56 с.
Вид битрейта : Постоянный
Битрейт : 448 Кбит/сек
Каналы : 6 каналов
Расположение каналов : Front: L C R, Side: L R, LFE
Частота : 48,0 КГц
Частота кадров : 31,250 кадров/сек (1536 SPF)
Битовая глубина : 16 бит
Метод сжатия : С потерями
Задержка видео : -1 с. 104 мс.
Размер потока : 79,9 Мбайт (8%)
ServiceKind/String : Complete Main

Аудио #2
Идентификатор : 189 (0xBD)-131 (0x83)
Формат : AC-3
Формат/Информация : Audio Coding 3
Параметр Endianness формата : Big
Режим смешивания : DVD-Video
Продолжительность : 24 м. 56 с.
Вид битрейта : Постоянный
Битрейт : 384 Кбит/сек
Каналы : 6 каналов
Расположение каналов : Front: L C R, Side: L R, LFE
Частота : 48,0 КГц
Частота кадров : 31,250 кадров/сек (1536 SPF)
Битовая глубина : 16 бит
Метод сжатия : С потерями
Задержка видео : -1 с. 136 мс.
Размер потока : 68,5 Мбайт (7%)
ServiceKind/String : Complete Main

Текст #1
Идентификатор : 189 (0xBD)-32 (0x20)
Формат : RLE
Формат/Информация : Run-length encoding
Режим смешивания : DVD-Video
Задержка видео : 2 с. 800 мс.

Текст #2
Идентификатор : 189 (0xBD)-33 (0x21)
Формат : RLE
Формат/Информация : Run-length encoding
Режим смешивания : DVD-Video
Задержка видео : 2 с. 880 мс.

Текст #3
Идентификатор : 189 (0xBD)-34 (0x22)
Формат : RLE
Формат/Информация : Run-length encoding
Режим смешивания : DVD-Video
Задержка видео : 2 с. 760 мс.

Текст #4
Идентификатор : 189 (0xBD)-35 (0x23)
Формат : RLE
Формат/Информация : Run-length encoding
Режим смешивания : DVD-Video
Задержка видео : 2 с. 880 мс.

Текст #5
Идентификатор : 189 (0xBD)-36 (0x24)
Формат : RLE
Формат/Информация : Run-length encoding
Режим смешивания : DVD-Video
Задержка видео : 2 с. 920 мс.

Текст #6
Идентификатор : 189 (0xBD)-37 (0x25)
Формат : RLE
Формат/Информация : Run-length encoding
Режим смешивания : DVD-Video
Задержка видео : 2 с. 880 мс.

Текст #7
Идентификатор : 189 (0xBD)-38 (0x26)
Формат : RLE
Формат/Информация : Run-length encoding
Режим смешивания : DVD-Video
Задержка видео : 2 с. 880 мс.

Текст #8
Идентификатор : 189 (0xBD)-39 (0x27)
Формат : RLE
Формат/Информация : Run-length encoding
Режим смешивания : DVD-Video
Задержка видео : 2 с. 760 мс.

Текст #9
Идентификатор : 189 (0xBD)-40 (0x28)
Формат : RLE
Формат/Информация : Run-length encoding
Режим смешивания : DVD-Video
Задержка видео : 2 с. 880 мс.

Текст #10
Идентификатор : 189 (0xBD)-41 (0x29)
Формат : RLE
Формат/Информация : Run-length encoding
Режим смешивания : DVD-Video
Задержка видео : 2 с. 880 мс.

Текст #11
Идентификатор : 189 (0xBD)-42 (0x2A)
Формат : RLE
Формат/Информация : Run-length encoding
Режим смешивания : DVD-Video
Задержка видео : 2 с. 760 мс.

Текст #12
Идентификатор : 189 (0xBD)-43 (0x2B)
Формат : RLE
Формат/Информация : Run-length encoding
Режим смешивания : DVD-Video
Задержка видео : -640 мс.

Текст #13
Идентификатор : 189 (0xBD)-44 (0x2C)
Формат : RLE
Формат/Информация : Run-length encoding
Режим смешивания : DVD-Video
Задержка видео : -640 мс.

Текст #14
Идентификатор : 189 (0xBD)-45 (0x2D)
Формат : RLE
Формат/Информация : Run-length encoding
Режим смешивания : DVD-Video
Задержка видео : -640 мс.

Текст #15
Идентификатор : 189 (0xBD)-46 (0x2E)
Формат : RLE
Формат/Информация : Run-length encoding
Режим смешивания : DVD-Video
Задержка видео : -640 мс.

Текст #16
Идентификатор : 189 (0xBD)-47 (0x2F)
Формат : RLE
Формат/Информация : Run-length encoding
Режим смешивания : DVD-Video
Задержка видео : -640 мс.

Текст #17
Идентификатор : 189 (0xBD)-48 (0x30)
Формат : RLE
Формат/Информация : Run-length encoding
Режим смешивания : DVD-Video
Задержка видео : -640 мс.

Текст #18
Идентификатор : 189 (0xBD)-49 (0x31)
Формат : RLE
Формат/Информация : Run-length encoding
Режим смешивания : DVD-Video
Задержка видео : -640 мс.

Меню

Доп. информация:

Исходник: Убийство в Восточном экспрессе / Murder on the Orient Express (2017) DVD9 (R2)
Удалены: предупреждающие надписи, доп. материалы, английская (описательная), итальянская, украинская и с комментариями звуковая дорожка (в меню кнопки затёрты).
Команды диска переписаны заново, оставлен один VTS.
Видео сжато на 8,7%.
Меню: статичное, недействующие кнопки затерты и закрыты.
Обработка и сжатие: DVD ReMake Pro + DVD Rebuilder + CCE SP2 [7 проходов] + Работа с меню (Adobe PhotoShop и MuxMan).

Скриншоты меню:

Скриншоты:

Все одноименные релизы в Клубе

Смотреть Online

http://moonwalk.cc/video/926f1fadb6f6378711c3316fb730a5e6/iframe
Детали торрента:
Название:Убийство в Восточном экспрессе / Murder on the Orient Express (2017) DVD5 [Custom]
Дата добавления:16 Апр 2018 15:52:08
Размер:4,33 GB
Раздают:10
Качают:0
Форум:Новинки (DVD)

All rights reserved © 2015-2018