TORRENTS43.COM

Скачать Чумовая пятница / Freaky Friday (2003) BDRip [H.264/720p]


Чумовая пятница / Freaky Friday (2003) BDRip [H.264/720p]
Производство: США, Walt Disney Pictures
Жанр: Комедия, Семейный

Режиссер: Марк Уотерс
Актеры: Джейми Ли Кёртис, Линдси Лохан, Марк Хэрмон, Харольд Гулд, Чад Майкл Мюррэй, Стивен Тоболовски, Кристина Видаль, Райан Малгарини

Описание:
У доктора Тэсс Колман и ее пятнадцатилетней дочери Энн совершенно разные взгляды на жизнь. У них расходятся вкусы абсолютно во всем — моде, музыке, им нравятся совершенно разные типы мужчин. И однажды в четверг их разногласия достигают апогея. Тэсс не одобряет музыкальные пристрастия дочери, а Энн терпеть не может друга своей матери и активно возражает против их свадьбы. Но внезапно все меняется самым чудесным образом. В пятницу два непримиримых врага проснувшись, внезапно обнаруживают, что они поменялись телами. Благодаря этому, Тэсс и Энн, начинают смотреть друг на друга в буквальном смысле новыми глазами и проникаются взаимным уважением. Но этого мало: судьба-злодейка подкидывает этой семейке новое испытание. В субботу — свадьба Тэсс, и это добавляет пикантности во взаимоотношения двух героинь…


Возраст: 12+ (зрителям, достигшим 12 лет)
Рейтинг MPAA: PG (рекомендуется присутствие родителей)
Дата выхода DVD/Blu-ray релиза: 28 сентября 2010, «Юниверсал Пикчерс Рус»

Релиз от: k.e.n & MegaPeer
Качество видео: BDRip 720p
Перевод: Дублированный, двухголосый закадровый, любительский одноголосый
Субтитры: Русские, английские

Видео: AVC, 1280x692 (1.850), 23.976 fps, 5 114 Kbps (0.241 bit/pixel)
Аудио #1: AC-3, 48.0 KHz, 2 ch, 192 Kbps, CBR (Russian) - дублированный
Аудио #2: AC-3, 48.0 KHz, 6 ch, 384 Kbps, CBR (Russian) - двухголосый
Аудио #3: AC-3, 48.0 KHz, 6 ch, 384 Kbps, CBR (Russian) - одноголосый
Аудио #4: AC-3, 48.0 KHz, 6 ch, 384 Kbps, CBR (English) - оригинал

Mediainfo:

Код: выделить все
Полное имя : D:ФИЛЬМЫЧумовая пятница.2003 (Л.Лохан, Д.Ли Кёртис).k.e.n & MegaPeer.mkv
Формат : Matroska
Версия формата : Version 2
Размер файла : 4,37 Гбайт
Продолжительность : 1 ч. 36 м.
Общий поток : 6455 Кбит/сек
Дата кодирования : UTC 2018-04-16 15:27:49
Программа кодирования : mkvmerge v5.3.0 ('I could have danced') built on Feb 9 2012 10:38:07
Библиотека кодирования : libebml v1.2.3 + libmatroska v1.3.0
Attachments : poster.jpg

Видео
Идентификатор : 1
Формат : AVC
Формат/Информация : Advanced Video Codec
Профиль формата : High@L4.1
Параметр CABAC формата : Да
Параметр ReFrames формата : 9 кадров
Идентификатор кодека : V_MPEG4/ISO/AVC
Продолжительность : 1 ч. 36 м.
Битрейт : 5114 Кбит/сек
Ширина : 1280 пикселей
Высота : 692 пикселя
Соотношение сторон : 1,85:1
Режим частоты кадров : Постоянный
Частота кадров : 23,976 (24000/1001) кадра/сек
Цветовое пространство : YUV
Субдискретизация насыщенности : 4:2:0
Битовая глубина : 8 бит
Тип развёртки : Прогрессивная
Бит/(Пиксели*Кадры) : 0.241
Размер потока : 3,37 Гбайт (77%)
Библиотека кодирования : x264 core 146 r2538 121396c
Настройки программы : cabac=1 / ref=9 / deblock=1:-3:-3 / analyse=0x3:0x133 / me=umh / subme=11 / psy=1 / psy_rd=1.04:0.08 / mixed_ref=1 / me_range=32 / chroma_me=1 / trellis=2 / 8x8dct=1 / cqm=0 / deadzone=21,11 / fast_pskip=0 / chroma_qp_offset=-3 / threads=12 / lookahead_threads=3 / sliced_threads=0 / nr=0 / decimate=0 / interlaced=0 / bluray_compat=0 / constrained_intra=0 / bframes=10 / b_pyramid=2 / b_adapt=2 / b_bias=0 / direct=3 / weightb=1 / open_gop=0 / weightp=2 / keyint=240 / keyint_min=23 / scenecut=40 / intra_refresh=0 / rc=2pass / mbtree=0 / bitrate=5114 / ratetol=1.0 / qcomp=0.60 / qpmin=0 / qpmax=69 / qpstep=4 / cplxblur=20.0 / qblur=0.5 / ip_ratio=1.40 / pb_ratio=1.30 / aq=3:0.90
Язык : English
Default : Да
Forced : Нет

Аудио #1
Идентификатор : 2
Формат : AC-3
Формат/Информация : Audio Coding 3
Расширение режима : CM (complete main)
Параметр Endianness формата : Big
Идентификатор кодека : A_AC3
Продолжительность : 1 ч. 36 м.
Вид битрейта : Постоянный
Битрейт : 192 Кбит/сек
Каналы : 2 канала
Расположение каналов : Front: L R
Частота : 48,0 КГц
Частота кадров : 31,250 кадров/сек (1536 spf)
Битовая глубина : 16 бит
Метод сжатия : С потерями
Размер потока : 133 Мбайт (3%)
Заголовок : Дубляж, R5
Язык : Russian
Default : Да
Forced : Нет

Аудио #2
Идентификатор : 3
Формат : AC-3
Формат/Информация : Audio Coding 3
Расширение режима : CM (complete main)
Параметр Endianness формата : Big
Идентификатор кодека : A_AC3
Продолжительность : 1 ч. 36 м.
Вид битрейта : Постоянный
Битрейт : 384 Кбит/сек
Каналы : 6 каналов
Расположение каналов : Front: L C R, Side: L R, LFE
Частота : 48,0 КГц
Частота кадров : 31,250 кадров/сек (1536 spf)
Битовая глубина : 16 бит
Метод сжатия : С потерями
Размер потока : 266 Мбайт (6%)
Заголовок : Профессиональный двухголосый
Язык : Russian
Default : Нет
Forced : Нет

Аудио #3
Идентификатор : 4
Формат : AC-3
Формат/Информация : Audio Coding 3
Расширение режима : CM (complete main)
Параметр Endianness формата : Big
Идентификатор кодека : A_AC3
Продолжительность : 1 ч. 36 м.
Вид битрейта : Постоянный
Битрейт : 384 Кбит/сек
Каналы : 6 каналов
Расположение каналов : Front: L C R, Side: L R, LFE
Частота : 48,0 КГц
Частота кадров : 31,250 кадров/сек (1536 spf)
Битовая глубина : 16 бит
Метод сжатия : С потерями
Размер потока : 266 Мбайт (6%)
Заголовок : Одноголосый закадровый
Язык : Russian
Default : Нет
Forced : Нет

Аудио #4
Идентификатор : 5
Формат : AC-3
Формат/Информация : Audio Coding 3
Расширение режима : CM (complete main)
Параметр Endianness формата : Big
Идентификатор кодека : A_AC3
Продолжительность : 1 ч. 36 м.
Вид битрейта : Постоянный
Битрейт : 384 Кбит/сек
Каналы : 6 каналов
Расположение каналов : Front: L C R, Side: L R, LFE
Частота : 48,0 КГц
Частота кадров : 31,250 кадров/сек (1536 spf)
Битовая глубина : 16 бит
Метод сжатия : С потерями
Размер потока : 266 Мбайт (6%)
Язык : English
Default : Нет
Forced : Нет

Текст #1
Идентификатор : 6
Формат : UTF-8
Идентификатор кодека : S_TEXT/UTF8
Идентификатор кодека/Информация : UTF-8 Plain Text
Заголовок : Full
Язык : Russian
Default : Да
Forced : Нет

Текст #2
Идентификатор : 7
Формат : UTF-8
Идентификатор кодека : S_TEXT/UTF8
Идентификатор кодека/Информация : UTF-8 Plain Text
Заголовок : Full
Язык : English
Default : Нет
Forced : Нет

Меню
00:00:00.000 : en:Chapter 01
00:10:13.070 : en:Chapter 02
00:17:30.340 : en:Chapter 03
00:24:05.610 : en:Chapter 04
00:32:58.017 : en:Chapter 05
00:41:53.052 : en:Chapter 06
00:55:04.050 : en:Chapter 07
01:03:52.745 : en:Chapter 08
01:11:18.524 : en:Chapter 09
01:16:36.466 : en:Chapter 10
01:22:15.847 : en:Chapter 11
01:29:50.426 : en:Chapter 12
Скриншоты:


Все релизы фильма в клубе

Смотреть Online

http://moonwalk.cc/video/e6a66cbcbac5ee91dfebd78b8514a100/iframe
Детали торрента:
Название:Чумовая пятница / Freaky Friday (2003) BDRip [H.264/720p]
Дата добавления:16 Апр 2018 21:45:00
Размер:4,37 GB
Раздают:3
Качают:0
Форум:Зарубежные Фильмы (HD, UHD-LQ)

All rights reserved © 2015-2018