TORRENTS43.COM

Скачать Сотня / 100 / The 100 (2018) WEB-DL / WEBRip [H.264/720p-LQ] (сезон 5, серии 1-5 из 13) BaibaKo (обновляемая) [AD]


Сотня / 100 / The 100 (2018) WEB-DL / WEBRip [H.264/720p-LQ] (сезон 5, серии 1-5 из 13) BaibaKo
«Survival isn't who you are. It's who you become»

Производство: США
Жанр: фантастика, драма, детектив

Режиссер: Дин Уайт, Джон Беринг, Милан Чейлов
Актеры: Элиза Тейлор-Коттер, Мари Авгеропулос, Сачин Сахель, Линдси Морган, Женевьев Бюкнер, Ричард Хэрмон, Джарод Джозеф, Челси Рейст, Крис Браунинг, Джош Ссеттуба и др.

Описание:
События в сериале начинают разворачиваться по прошествии девяносто семи лет после того как всю цивилизацию уничтожила страшная атомная война. Высоко в космосе на орбите Земли летает большой космический корабль, именно здесь находятся те, кто выжил после страшной катастрофы. Они единственные кто пережил этот ужасный катаклизм который устроило человечество. Именно с этого последнего пристанища людей на Землю отправляют космический челнок на котором находятся сто малолетних преступников…


Возраст: 16+ (зрителям, достигшим 16 лет)

Продолжительность: ~00:42:00 серия
Качество видео: WEB-DL
Перевод: Многоголосый закадровый, профессиональный - BaibaKo
Реклама: присутствуют голосовые и текстовые вставки

Видео: AVC/H.264, 1280x720 (16:9), ~4012 kbps
Аудио #1: AC3, 6 ch, 384 kbps - русский, многоголосый закадровый
Аудио #2: AC3, 6 ch, 384 kbps - английский

MediaInfo


Полное имя : L:\The_Hundred_s5_WEB-DL720p_BaibaKo_[Torrents43.com]\The.100.s05e01.HD720p.WEB-DL.Rus.Eng.BaibaKo.tv.mkv
Формат : Matroska
Версия формата : Version 4 / Version 2
Размер файла : 1,44 Гбайт
Продолжительность : 42 м.
Общий поток : 4878 Кбит/сек
Дата кодирования : UTC 2018-04-25 19:27:27 / UTC 2018-04-25T11:42:25Z
Программа кодирования : mkvmerge v6.8.0 ('Theme for Great Cities') 64bit built on Mar 2 2014 21:34:26
Библиотека кодирования : libebml v1.3.0 + libmatroska v1.4.1 / Lavf57.7.2

Видео
Идентификатор : 1
Формат : AVC
Формат/Информация : Advanced Video Codec
Профиль формата : High@L4.1
Параметр CABAC формата : Нет
Параметр ReFrames формата : 4 кадра
Идентификатор кодека : V_MPEG4/ISO/AVC
Продолжительность : 42 м.
Битрейт : 4012 Кбит/сек
Ширина : 1280 пикселей
Высота : 720 пикселей
Соотношение сторон : 16:9
Режим частоты кадров : Постоянный
Частота кадров : 23,976 кадра/сек
Цветовое пространство : YUV
Субдискретизация насыщенности : 4:2:0
Битовая глубина : 8 бит
Тип развёртки : Прогрессивная
Бит/(Пиксели*Кадры) : 0.182
Размер потока : 1,19 Гбайт (82%)
Default : Да
Forced : Нет
Цветовой диапазон : Limited
Основные цвета : BT.709
Характеристики трансфера : BT.709
Коэффициенты матрицы : BT.709

Аудио #1
Идентификатор : 2
Формат : AC-3
Формат/Информация : Audio Coding 3
Расширение режима : CM (complete main)
Параметр Endianness формата : Big
Идентификатор кодека : A_AC3
Продолжительность : 42 м.
Вид битрейта : Постоянный
Битрейт : 384 Кбит/сек
Каналы : 6 каналов
Расположение каналов : Front: L C R, Side: L R, LFE
Частота : 48,0 КГц
Частота кадров : 31,250 кадров/сек
Метод сжатия : С потерями
Задержка видео : 26 мс.
Размер потока : 116 Мбайт (8%)
Заголовок : Surround
Язык : Russian
Default : Да
Forced : Нет

Аудио #2
Идентификатор : 3
Формат : AC-3
Формат/Информация : Audio Coding 3
Расширение режима : CM (complete main)
Параметр Endianness формата : Big
Идентификатор кодека : A_AC3
Продолжительность : 42 м.
Вид битрейта : Постоянный
Битрейт : 384 Кбит/сек
Каналы : 6 каналов
Расположение каналов : Front: L C R, Side: L R, LFE
Частота : 48,0 КГц
Частота кадров : 31,250 кадров/сек
Метод сжатия : С потерями
Задержка видео : 26 мс.
Размер потока : 116 Мбайт (8%)
Заголовок : Surround
Default : Нет
Forced : Нет

Список серий

http://www.imdb.com/title/tt2661044/episodes?season=5&ref_=tt_eps_sn_5

01. Eden / Эдем
02. Red Queen / Красная королева
03. Sleeping Giants / Спящий гигант
04. Pandora's Box / Ящик Пандоры
05. Shifting Sands / Зыбучие пески

06. Exit Wounds / Выходное отверстие
...

Внимание! Раздача ведётся путём добавления новых серий

Внимание! Раздача ведётся путём добавления новых серий; при каждом добавлении создаётся новый торрент.
Чтобы начать докачку новой серии, пользователям необходимо сделать следующее:
1. Остановить скачивание;
2. Удалить старый торрент у себя из клиента (старые серии удалять не надо);
3. Скачать новый торрент и запустить его у себя в клиенте вместо старого, при этом указать клиенту путь в старую папку куда и должно происходить скачивание новых серий. Ваш клиент при этом должен произвести хеширование (проверку) старой папки и будет докачивать только те серии, которых у вас ещё нет. Старые серии при этом не удаляются, а продолжают раздаваться! Eсли вы уже удалили старые серии, то предотвратить повторную закачку старых серий можно, отжав галочку в соответствующих местах при запуске нового торрента.
Скриншоты:


Все одноименные релизы в Клубе

Смотреть Online

http://moonwalk.cc/video/bc5dcf3c45dcdc1a/iframe
Детали торрента:
Название:Сотня / 100 / The 100 (2018) WEB-DL / WEBRip [H.264/720p-LQ] (сезон 5, серии 1-5 из 13) BaibaKo (обновляемая) [AD]
Дата добавления:23 Май 2018 23:29:32
Размер:8,05 GB
Раздают:11
Качают:9
Форум:Зарубежные сериалы

All rights reserved © 2015-2018