TORRENTS43.COM

Скачать Брокмайр / Brockmire (2018) WEBRip [H.264/1080p-LQ] (сезон 2, серии 1-4 из 8) OMSKBIRD (обновляемая) [AD]


Брокмайр / Brockmire (2018) WEBRip [H.264/1080p-LQ] (сезон 2, серии 1-4 из 8) OMSKBIRD
Производство: США / Funny or Die
Жанр: драма, комедия, спорт

Режиссер: Тим Киркби
Актеры: Хэнк Азария, Хемки Мадера, Аманда Пит, Пол Рэй, Стив Култер, Алекс Фиппс, Кэти Финнеран, Дестини Лопес, Рубен Бугайонг и др.

Описание:
Джим Брокмайр — знаменитый комментатор игр Главной лиги бейсбола. Однако узнав об изменах жены, он послал к чертям профессионализм и слетел с катушек в прямом эфире. Ролик с буйствующим Брокмайром попал в сеть, превратив бывшую звезду во всеобщее посмешище. Но десять лет спустя главный герой решает восстановить свою карьеру и наладить личную жизнь, устроившись комментатором игр низшей бейсбольной лиги в крохотном Морристауне.



Продолжительность: ~00:23:00 серия
Качество видео: WEBRip 1080p
Перевод: Двухголосый закадровый, профессиональный | OMSKBIRD
Субтитры: английские
Реклама: присутствуют аудио вставки рекламы

Видео: AVC/H.264, 1920х1080 (16:9), ~ 5949 kbps
Аудио # 1: AC-3, 2 ch, 192 kbps, CBR - русский, двухголосый закадровый
Аудио # 2: AC-3, 2 ch, 192 kbps, CBR - английский

Mediainfo:


General
Unique ID : 226568262948805379744939760828628359333 (0xAA7375D010FC47419687226192B858A5)
Complete name : H:\Мои Документы\Видео\РАЗДАЧИ\БРОКМАЙР\Brockmire S02 WEBRip 1080p (OMSKBIRD)\Brockmire S02E01 WEBRip 1080p (OMSKBIRD).mkv
Format : Matroska
Format version : Version 2
File size : 1.01 GiB
Duration : 22 min 18 s
Overall bit rate : 6 462 kb/s
Encoded date : UTC 2018-04-26 15:05:44
Writing application : mkvmerge v4.0.0 ('The Stars were mine') сборка от Jun 6 2010 16:18:42
Writing library : libebml v1.0.0 + libmatroska v1.0.0

Video
ID : 1
Format : AVC
Format/Info : Advanced Video Codec
Format profile : High@L4.1
Format settings, CABAC : Yes
Format settings, RefFrames : 4 frames
Codec ID : V_MPEG4/ISO/AVC
Duration : 22 min 18 s
Bit rate : 5 949 kb/s
Width : 1 920 pixels
Height : 1 080 pixels
Display aspect ratio : 16:9
Frame rate mode : Constant
Frame rate : 23.976 (24000/1001) FPS
Color space : YUV
Chroma subsampling : 4:2:0
Bit depth : 8 bits
Scan type : Progressive
Bits/(Pixel*Frame) : 0.120
Stream size : 949 MiB (92%)
Writing library : x264 core 155 r2901 7d0ff22
Encoding settings : cabac=1 / ref=4 / deblock=1:-3:-3 / analyse=0x3:0x113 / me=hex / subme=8 / psy=1 / psy_rd=1.00:0.15 / mixed_ref=1 / me_range=16 / chroma_me=1 / trellis=2 / 8x8dct=1 / cqm=0 / deadzone=21,11 / fast_pskip=1 / chroma_qp_offset=-2 / threads=34 / lookahead_threads=5 / sliced_threads=0 / nr=0 / decimate=1 / interlaced=0 / bluray_compat=0 / constrained_intra=0 / bframes=3 / b_pyramid=2 / b_adapt=2 / b_bias=0 / direct=3 / weightb=1 / open_gop=0 / weightp=2 / keyint=240 / keyint_min=23 / scenecut=40 / intra_refresh=0 / rc_lookahead=50 / rc=crf / mbtree=1 / crf=17.0 / qcomp=0.60 / qpmin=0 / qpmax=69 / qpstep=4 / ip_ratio=1.40 / aq=1:0.80
Language : English
Default : No
Forced : No
Color range : Limited
Matrix coefficients : BT.709

Audio #1
ID : 2
Format : AC-3
Format/Info : Audio Coding 3
Format settings, Endianness : Big
Codec ID : A_AC3
Duration : 22 min 18 s
Bit rate mode : Constant
Bit rate : 192 kb/s
Channel(s) : 2 channels
Channel positions : Front: L R
Sampling rate : 48.0 kHz
Frame rate : 31.250 FPS (1536 SPF)
Bit depth : 16 bits
Compression mode : Lossy
Stream size : 30.6 MiB (3%)
Language : Russian
Service kind : Complete Main
Default : Yes
Forced : No

Audio #2
ID : 3
Format : AC-3
Format/Info : Audio Coding 3
Format settings, Endianness : Big
Codec ID : A_AC3
Duration : 22 min 18 s
Bit rate mode : Constant
Bit rate : 192 kb/s
Channel(s) : 2 channels
Channel positions : Front: L R
Sampling rate : 48.0 kHz
Frame rate : 31.250 FPS (1536 SPF)
Bit depth : 16 bits
Compression mode : Lossy
Stream size : 30.6 MiB (3%)
Language : English
Service kind : Complete Main
Default : No
Forced : No

Text
ID : 4
Format : UTF-8
Codec ID : S_TEXT/UTF8
Codec ID/Info : UTF-8 Plain Text
Language : English
Default : No
Forced : No

Внимание! Раздача ведётся путём добавления новых серий

Внимание! Раздача ведётся путём добавления новых серий; при каждом добавлении создаётся новый торрент.
Чтобы начать докачку новой серии, пользователям необходимо сделать следующее:
1. Остановить скачивание;
2. Удалить старый торрент у себя из клиента (старые серии удалять не надо);
3. Скачать новый торрент и запустить его у себя в клиенте вместо старого, при этом указать клиенту путь в старую папку куда и должно происходить скачивание новых серий. Ваш клиент при этом должен произвести хеширование (проверку) старой папки и будет докачивать только те серии, которых у вас ещё нет. Старые серии при этом не удаляются, а продолжают раздаваться! Eсли вы уже удалили старые серии, то предотвратить повторную закачку старых серий можно, отжав галочку в соответствующих местах при запуске нового торрента.
Скриншоты:


Все одноименные релизы в Клубе

Смотреть Online

http://moonwalk.cc/serial/b486c57bee1db7b27b656ac1fe7a844f/iframe
Детали торрента:
Название:Брокмайр / Brockmire (2018) WEBRip [H.264/1080p-LQ] (сезон 2, серии 1-4 из 8) OMSKBIRD (обновляемая) [AD]
Дата добавления:19 Май 2018 17:24:57
Размер:3,88 GB
Раздают:8
Качают:1
Форум:Зарубежные сериалы

All rights reserved © 2015-2018