TORRENTS43.COM

Скачать Красный воробей / Red Sparrow (2018) WEBRip [H.264/1080p-LQ] [MVO]


Красный воробей / Red Sparrow (2018) WEBRip
Производство: США / Chernin Entertainment, Film Rites, Soundtrack New York
Жанр: Триллер, драма, детектив

Режиссер: Фрэнсис Лоуренс
Актеры: Дженнифер Лоуренс, Джоэл Эдгертон, Маттиас Шонартс, Шарлотта Рэмплинг, Мэри-Луиз Паркер, Киаран Хайндс, Джоэли Ричардсон, Билл Кэмп, Джереми Айронс, Текла Рютен

Описание:
После вынужденного окончания карьеры из-за профессиональной травмы Доминика Егорова и ее мать сталкиваются с мрачным и неопределенным будущим. Героиня соглашается стать рекрутом в Школе Воробьев, секретной службе, которая обучает уникальных молодых людей использовать свое тело и ум в качестве опаснейшего оружия. После долгого садистского обучения девушка превращается в самого опасного Воробья за всю историю секретной службы. Теперь бывшая балерина должна примирить в себе человека, которым она была, и силу, которой она овладела, со своей собственной жизнью и жизнью всех, кто ей дорог. В том числе, американского агента ЦРУ, пытающегося убедить ее, что он единственный человек, которому она может доверять.


Возраст: 18+ (зрителям, достигшим 18 лет. запрещено для детей)
Рейтинг MPAA: R (лицам до 17 лет обязательно присутствие взрослого)
Дата мировой премьеры: 19 февраля 2018
Дата российской премьеры: 31 мая 2018
Цифровой релиз: 20 июля 2018


Продолжительность: 02:15:51
Качество видео: WEBRip
Перевод: Многоголосый закадровый (HDrezka Studio)
Субтитры: Корейские (хардсаб)

Видео: H.264/AVC, 1904x800, ~4882 Kbps
Аудио #1: AC-3, 2 ch, 192 Kbps | Русский
Аудио #2: AC-3, 2 ch, 192 Kbps | Английский

MediaInfo:


Общее
Уникальный идентификатор : 175675945539373445016919943328821320724 (0x8429F4D6C7AB418BB6D863401F429C14)
Полное имя : E:\NNM\Красный воробей\Red Sparrow 2018 WEBRip 1080p-LQ.mkv
Формат : Matroska
Версия формата : Version 2
Размер файла : 5,00 Гбайт
Продолжительность : 2 ч. 15 м.
Режим общего битрейта : Переменный
Общий поток : 5265 Кбит/сек
Дата кодирования : UTC 2018-04-26 12:13:32
Программа кодирования : mkvmerge v7.8.0 ('River Man') 32bit built on Apr 3 2015 12:11:22
Библиотека кодирования : libebml v1.3.1 + libmatroska v1.4.2

Видео
Идентификатор : 1
Формат : AVC
Формат/Информация : Advanced Video Codec
Профиль формата : High@L4.1
Настройки формата : CABAC / 3 Ref Frames
Параметр CABAC формата : Да
Параметр RefFrames формата : 3 кадра
Идентификатор кодека : V_MPEG4/ISO/AVC
Продолжительность : 2 ч. 15 м.
Вид битрейта : Переменный
Битрейт : 4882 Кбит/сек
Максимальный битрейт : 40,0 Мбит/сек
Ширина : 1904 пикселя
Высота : 800 пикселей
Соотношение сторон : 2,40:1
Режим частоты кадров : Постоянный
Частота кадров : 29,970 (30000/1001) кадров/сек
Цветовое пространство : YUV
Субдискретизация насыщенности : 4:2:0
Битовая глубина : 8 бит
Тип развёртки : Прогрессивная
Бит/(Пиксели*Кадры) : 0.107
Размер потока : 4,53 Гбайт (91%)
Библиотека кодирования : x264 core 152 r2851 ba24899
Настройки программы : cabac=1 / ref=3 / deblock=1:0:0 / analyse=0x3:0x113 / me=umh / subme=8 / psy=1 / psy_rd=1.00:0.00 / mixed_ref=1 / me_range=24 / chroma_me=1 / trellis=1 / 8x8dct=1 / cqm=0 / deadzone=21,11 / fast_pskip=1 / chroma_qp_offset=-2 / threads=18 / lookahead_threads=3 / sliced_threads=0 / nr=0 / decimate=1 / interlaced=0 / bluray_compat=1 / constrained_intra=0 / bframes=8 / b_pyramid=1 / b_adapt=1 / b_bias=0 / direct=1 / weightb=1 / open_gop=0 / weightp=1 / keyint=36 / keyint_min=1 / scenecut=40 / intra_refresh=0 / rc_lookahead=36 / rc=2pass / mbtree=1 / bitrate=4882 / ratetol=1.0 / qcomp=0.60 / qpmin=0 / qpmax=69 / qpstep=4 / cplxblur=20.0 / qblur=0.5 / vbv_maxrate=40000 / vbv_bufsize=30000 / nal_hrd=vbr / filler=0 / ip_ratio=1.40 / aq=1:1.00
Default : Да
Forced : Нет
Цветовой диапазон : Limited
Основные цвета : BT.709
Характеристики трансфера : BT.709
Коэффициенты матрицы : BT.709

Аудио #1
Идентификатор : 2
Формат : AC-3
Формат/Информация : Audio Coding 3
Идентификатор кодека : A_AC3
Продолжительность : 2 ч. 15 м.
Вид битрейта : Постоянный
Битрейт : 192 Кбит/сек
Каналы : 2 канала
Расположение каналов : Front: L R
Частота : 48,0 КГц
Частота кадров : 31,250 кадров/сек (1536 SPF)
Битовая глубина : 16 бит
Метод сжатия : С потерями
Размер потока : 187 Мбайт (4%)
Язык : Russian
ServiceKind/String : Complete Main
Default : Да
Forced : Да

Аудио #2
Идентификатор : 3
Формат : AC-3
Формат/Информация : Audio Coding 3
Идентификатор кодека : A_AC3
Продолжительность : 2 ч. 15 м.
Вид битрейта : Постоянный
Битрейт : 192 Кбит/сек
Каналы : 2 канала
Расположение каналов : Front: L R
Частота : 48,0 КГц
Частота кадров : 31,250 кадров/сек (1536 SPF)
Битовая глубина : 16 бит
Метод сжатия : С потерями
Размер потока : 187 Мбайт (4%)
Язык : English
ServiceKind/String : Complete Main
Default : Нет
Forced : Нет
Скриншоты:


Все одноименные релизы в Клубе

Смотреть Online

http://moonwalk.cc/video/5b49bb01d1723933/iframe
Детали торрента:
Название:Красный воробей / Red Sparrow (2018) WEBRip [H.264/1080p-LQ] [MVO]
Дата добавления:28 Апр 2018 23:38:08
Размер:5 GB
Раздают:185
Качают:4
Форум:Зарубежные Новинки (HD*Rip/LQ, DVDRip)

All rights reserved © 2015-2018